<?xml version="1.0" standalone="no"?>
<!DOCTYPE svg PUBLIC "-//W3C//DTD SVG 1.1//EN" "http://www.w3.org/Graphics/SVG/1.1/DTD/svg11.dtd" >
<svg xmlns="http://www.w3.org/2000/svg" xmlns:xlink="http://www.w3.org/1999/xlink" version="1.1">
<metadata>
Created by FontForge 20170731 at Fri Jun 17 03:01:00 2011
 By Aleksey,,,
Copyright (c) 2011, Sorkin Type Co. (www.sorkintype.com)
with Reserved Font Name "Hammersmith One".

This Font Software is licensed under the SIL Open Font License,
Version 1.1. This license is available with a FAQ at:
http://scripts.sil.org/OFL
</metadata>
<defs>
<font id="HammersmithOne" horiz-adv-x="0" >
  <font-face 
    font-family="Hammersmith One"
    font-weight="400"
    font-stretch="normal"
    units-per-em="2048"
    panose-1="2 1 7 3 3 5 1 6 5 4"
    ascent="1638"
    descent="-410"
    x-height="1045"
    cap-height="1338"
    bbox="-90 -716 2272 1782"
    underline-thickness="50"
    underline-position="-150"
    unicode-range="U+0001-20AC"
  />
<missing-glyph 
 />
    <glyph glyph-name=".notdef" 
 />
    <glyph glyph-name=".null" 
 />
    <glyph glyph-name="nonmarkingreturn" 
 />
    <glyph glyph-name="uni0001" 
 />
    <glyph glyph-name="uni0002" 
 />
    <glyph glyph-name="uni0003" 
 />
    <glyph glyph-name="uni0004" 
 />
    <glyph glyph-name="uni0005" 
 />
    <glyph glyph-name="uni0006" 
 />
    <glyph glyph-name="uni0007" 
 />
    <glyph glyph-name="uni0008" 
 />
    <glyph glyph-name="uni0009" unicode="&#x9;" 
 />
    <glyph glyph-name="uni0010" 
 />
    <glyph glyph-name="uni0011" 
 />
    <glyph glyph-name="uni0012" 
 />
    <glyph glyph-name="uni0013" 
 />
    <glyph glyph-name="uni0014" 
 />
    <glyph glyph-name="uni0015" 
 />
    <glyph glyph-name="uni0016" 
 />
    <glyph glyph-name="uni0017" 
 />
    <glyph glyph-name="uni0018" 
 />
    <glyph glyph-name="uni0019" 
 />
    <glyph glyph-name="space" unicode=" " horiz-adv-x="530" 
 />
    <glyph glyph-name="exclam" unicode="!" horiz-adv-x="530" 
d="M134 1358q25 -1 41.5 -2t28.5 -1.5t21.5 -0.5h21.5q54 0 93 2t55 6l-4 -988q-9 1 -26 2t-40 2t-51 1.5t-58 0.5h-80zM132 0q4 31 6 62.5t2 63.5q0 29 -2 62t-4 52h263q-2 -25 -3 -61.5t-1 -64.5q0 -32 0.5 -60t3.5 -54h-265z" />
    <glyph glyph-name="quotedbl" unicode="&#x22;" horiz-adv-x="871" 
d="M566 1110q-4 127 -8 203t-8 117h251q-4 -37 -9 -116t-8 -205l-3 -132h-211zM180 1110q-7 127 -11.5 203t-8.5 117h251q-4 -37 -9 -116t-8 -205l-3 -132h-211v133z" />
    <glyph glyph-name="numbersign" unicode="#" horiz-adv-x="1414" 
d="M339 496h-41q-32 0 -63.5 -1t-60.5 -4l3 207q15 -4 45 -5t87 -1h58l28 201h-70q-32 0 -63.5 -1t-60.5 -4l3 207q15 -4 45 -5t87 -1h86l45 321h226l-45 -321h184l45 321h226l-45 -321h47q57 0 87 1t45 5l3 -207q-29 3 -60.5 4t-63.5 1h-85l-28 -201h55q57 0 87 1t45 5
l3 -207q-29 3 -60.5 4t-63.5 1h-94l-44 -319h-226l44 319h-184l-44 -319h-226zM777 692l28 201h-184l-28 -201h184z" />
    <glyph glyph-name="dollar" unicode="$" horiz-adv-x="1125" 
d="M149 362l7 6q18 -27 58 -54.5t92.5 -49.5t112.5 -35.5t119 -13.5q51 0 93 12t72 33t47 49t17 60q0 26 -10.5 48t-36.5 43t-69.5 43t-109.5 48q-106 42 -176.5 85t-113 91t-60 103t-17.5 120q0 58 22.5 116.5t64.5 109.5t101.5 91.5t134.5 63.5v80q0 57 -2.5 88.5
t-6.5 46.5h269q-2 -29 -3 -60.5t-1 -63.5v-74q104 -15 197 -64l-31 -247l-7 -2q-35 19 -73 34t-74.5 25.5t-69.5 16t-58 5.5q-48 0 -86.5 -12.5t-65.5 -32t-41 -44.5t-14 -50q0 -23 11.5 -45.5t38.5 -45t72 -45t113 -44.5q102 -34 171 -73.5t111 -86t60 -101t18 -118.5
q0 -65 -22.5 -133t-68.5 -127.5t-116 -105t-165 -64.5v-59q0 -32 1 -63.5t3 -60.5h-269q4 15 6.5 46.5t2.5 88.5v47q-93 16 -166.5 49.5t-110.5 73.5z" />
    <glyph glyph-name="percent" unicode="%" horiz-adv-x="2158" 
d="M517 612q-84 0 -157 27t-126 75.5t-83.5 115.5t-30.5 147q0 68 25.5 135.5t77.5 121.5t130.5 87.5t185.5 33.5q95 0 169 -31t125 -82.5t77.5 -118.5t26.5 -138q0 -75 -30 -142.5t-84.5 -118.5t-132 -81.5t-173.5 -30.5zM1378 1330h245l-880 -1330h-245zM535 843
q38 0 68.5 11.5t52 31.5t33 46.5t11.5 55.5q0 26 -11.5 51.5t-33 45.5t-53.5 32.5t-73 12.5q-40 0 -71 -12t-52.5 -32t-32.5 -46.5t-11 -54.5t11.5 -53.5t33.5 -45t54 -31.5t74 -12zM1221 340q0 68 25.5 135.5t77.5 121.5t130.5 87.5t185.5 33.5q95 0 169 -31t125 -82.5
t77.5 -118.5t26.5 -138q0 -75 -30 -142.5t-84.5 -118.5t-132 -81.5t-173.5 -30.5q-84 0 -157 27t-126 75.5t-83.5 115.5t-30.5 147zM1463 348q0 -28 11.5 -53.5t33.5 -45t54 -31.5t74 -12q38 0 68.5 11.5t52 31.5t33 46.5t11.5 55.5q0 26 -11.5 51.5t-33 45.5t-53.5 32.5
t-73 12.5q-40 0 -71 -12t-52.5 -32t-32.5 -46.5t-11 -54.5z" />
    <glyph glyph-name="ampersand" unicode="&#x26;" horiz-adv-x="1414" 
d="M100 442q0 63 18 121t49.5 107t75.5 87.5t97 63.5q-24 48 -34 91t-10 88q0 78 30 143t83 112t127 73.5t163 26.5q72 0 130.5 -18t100.5 -42q-4 -18 -7 -40.5t-4.5 -45.5t-2 -45.5t-0.5 -41.5q0 -28 0.5 -42t2 -21.5t2.5 -11t3 -9.5l-5 -7q-12 18 -35 34.5t-54 30
t-66 21.5t-71 8q-75 0 -110 -32.5t-35 -83.5q0 -20 4.5 -40.5t17.5 -46.5t37 -58t62.5 -73.5t93.5 -95t130 -121.5l104 -94q15 42 23.5 87t8.5 96q0 23 -5 42t-11.5 33t-13.5 23t-11 12v12l32 -15q63 -35 106.5 -59t70 -41t38 -29t11.5 -22q0 -78 -15.5 -153t-47.5 -147
q39 -32 66.5 -52.5t47 -32t32.5 -15.5t23 -4q20 0 32 7t19 16l5 -6l-103 -243q-8 -6 -18 -10t-30 -4q-14 0 -31.5 5.5t-43 20.5t-62 42t-88.5 70q-75 -64 -174 -101t-231 -37q-116 0 -213 36.5t-167 100t-108.5 148.5t-38.5 182zM351 459q0 -50 22 -94t60.5 -77.5t91 -53
t112.5 -19.5q114 0 206 64l-108 99q-91 82 -158 149t-117 125q-109 -79 -109 -193z" />
    <glyph glyph-name="quotesingle" unicode="'" horiz-adv-x="530" 
d="M160 1110q-7 127 -11.5 203t-8.5 117h251q-4 -37 -9 -116t-8 -205l-3 -132h-211v133z" />
    <glyph glyph-name="parenleft" unicode="(" horiz-adv-x="885" 
d="M478 -100q-154 133 -236 328.5t-82 451.5q0 107 20 212t60 201.5t99.5 182.5t138.5 154h256v-6q-86 -78 -146.5 -160t-99 -173.5t-56.5 -194t-18 -221.5q0 -220 77 -410.5t233 -358.5v-6h-246z" />
    <glyph glyph-name="parenright" unicode=")" horiz-adv-x="885" 
d="M161 -94q156 168 233 358.5t77 410.5q0 119 -18 221.5t-57 193.5t-99.5 173.5t-145.5 160.5v6h256q79 -68 138.5 -154t99.5 -182.5t60 -201.5t20 -212q0 -256 -82 -451.5t-236 -328.5h-246v6z" />
    <glyph glyph-name="asterisk" unicode="*" horiz-adv-x="1239" 
d="M503 724l2 16t4.5 42t6.5 59.5t8 68.5t8 69t7 62l-258 -199l-128 191l289 133l-288 170l157 180l225 -217l-40 306h244l-42 -318l228 201l151 -181l-303 -146l313 -150l-134 -186l-254 206l37 -307h-233z" />
    <glyph glyph-name="plus" unicode="+" horiz-adv-x="1239" 
d="M496 157q4 15 5 45t1 87v211h-213q-32 0 -63.5 -1t-60.5 -4l3 247q15 -4 45 -5t87 -1h202v192q0 57 -1 87t-5 45l247 3q-3 -29 -4 -60.5t-1 -63.5v-203h201q57 0 87 1t45 5l3 -247q-29 3 -60.5 4t-63.5 1h-212v-222q0 -32 1 -63.5t4 -60.5z" />
    <glyph glyph-name="comma" unicode="," horiz-adv-x="530" 
d="M157 43q0 39 -2 82.5t-9 94.5l249 40q4 -28 7 -51t5 -44t3 -41t1 -42q0 -49 -6 -99t-16.5 -92.5t-24 -73t-27.5 -39.5q-11 -7 -29.5 -15t-46 -16.5t-67 -18t-92.5 -20.5l-6 6q9 16 19.5 50.5t20 79.5t15.5 97t6 102z" />
    <glyph glyph-name="hyphen" unicode="-" horiz-adv-x="1239" 
d="M328 742q15 -4 45 -5t87 -1h319q57 0 87 1t45 5l3 -247q-29 3 -60.5 4t-63.5 1h-341q-32 0 -63.5 -1t-60.5 -4z" />
    <glyph glyph-name="period" unicode="." horiz-adv-x="530" 
d="M119 0q5 34 7 69t2 70q0 16 -0.5 33.5t-1.5 34.5t-2.5 32l-2.5 25h290q-2 -28 -3.5 -67.5t-1.5 -70.5q0 -35 0.5 -66t4.5 -60h-292z" />
    <glyph glyph-name="slash" unicode="/" horiz-adv-x="885" 
d="M504 1330h256l-380 -1330h-256z" />
    <glyph glyph-name="zero" unicode="0" horiz-adv-x="1325" 
d="M100 637q0 147 43 277.5t120.5 228.5t186 155t240.5 57q127 0 226.5 -49.5t168 -139t104.5 -214t36 -273.5q0 -173 -46 -305t-124.5 -220.5t-182.5 -133.5t-219 -45q-120 0 -221 48t-175 135t-115.5 209t-41.5 270zM676 215q55 0 107.5 28.5t94 84t67 138t25.5 191.5
q0 105 -19.5 189.5t-58 144.5t-94.5 92.5t-128 32.5t-130.5 -32t-99.5 -92t-63 -147t-22 -197q0 -91 23 -170t65.5 -137.5t101.5 -92t131 -33.5z" />
    <glyph glyph-name="one" unicode="1" horiz-adv-x="569" 
d="M157 1330h255v-1330h-255v1330z" />
    <glyph glyph-name="two" unicode="2" horiz-adv-x="1112" 
d="M521 600q55 70 91 121.5t58 91.5t31 72t9 62q0 40 -16 71.5t-44.5 53t-68 32.5t-86.5 11q-52 0 -104 -14.5t-97.5 -37t-81 -51t-53.5 -55.5l-13 -2l8 308q25 16 64 32t85.5 29.5t96 22t94.5 8.5q132 0 222 -33t145.5 -87.5t80 -125t24.5 -145.5q0 -34 -4.5 -69.5
t-20 -78.5t-43.5 -96.5t-74.5 -122.5t-115 -157t-163.5 -200h314q66 0 103.5 5.5t63.5 25.5l7 -3l-113 -283q-55 3 -103 5.5t-99 5t-111.5 3.5t-140.5 1q-49 0 -156 -1.5t-259 -5.5z" />
    <glyph glyph-name="three" unicode="3" horiz-adv-x="1221" 
d="M100 385l10 12q25 -34 60 -66.5t85.5 -58.5t117.5 -42t155 -16q76 0 140 15.5t110.5 44.5t72 72t25.5 99q0 52 -33.5 90t-84.5 63t-112 37t-116 12q-76 0 -141.5 -21t-116.5 -59l-6 7l10 236q66 35 138 50t153 15h18t18 -1q57 18 85 49t28 65q0 24 -13 46.5t-39 40
t-65 28t-90 10.5q-39 0 -82 -8t-83.5 -23t-75 -36t-56.5 -46l-5 5l-12 256q34 22 75 39.5t86 29.5t93.5 18.5t96.5 6.5q85 0 163.5 -21t138 -62t95 -101.5t35.5 -138.5q0 -69 -31 -125t-82 -92q61 -26 110.5 -65t84 -88.5t53 -107.5t18.5 -122q0 -87 -41 -169t-118.5 -146
t-189 -103t-252.5 -39q-73 0 -133 9t-111 26t-95.5 41.5t-86.5 56.5z" />
    <glyph glyph-name="four" unicode="4" horiz-adv-x="1232" 
d="M20 404l632 928h263v-702q78 0 148 6t124 20l5 -7l-113 -259h-164v-390h-255v390h-636zM660 630v308l-206 -308h206z" />
    <glyph glyph-name="five" unicode="5" horiz-adv-x="1339" 
d="M120 426l10 7q37 -55 91.5 -96t121.5 -68t145 -40.5t162 -13.5q89 0 155 17.5t110 49t65.5 74.5t21.5 93q0 51 -30 94t-84 74.5t-130 49.5t-168 18q-115 0 -217 -21t-180 -60v726h637q27 0 58.5 1t60.5 4.5t53 10t35 16.5l4 -3l-24 -248q-12 -6 -26.5 -10t-35.5 -6.5
t-50 -3.5t-71 -1h-386v-190q48 11 101.5 17.5t101.5 6.5q150 0 263.5 -37t190 -98.5t115.5 -140.5t39 -162q0 -112 -48.5 -206t-134.5 -161.5t-204.5 -105.5t-259.5 -38q-159 0 -276 34.5t-205 103.5z" />
    <glyph glyph-name="six" unicode="6" horiz-adv-x="1398" 
d="M120 610q0 95 21 187.5t63 175t104.5 152.5t145 121.5t184.5 80t224 28.5q94 0 167.5 -15.5t133.5 -43.5l9 -256l-4 -6q-30 22 -69 37t-82.5 25t-88 14.5t-84.5 4.5q-97 0 -182 -34.5t-148.5 -96t-100.5 -145.5t-38 -184q37 79 88 134t111.5 89t128 49.5t136.5 15.5
q91 0 174.5 -32.5t146.5 -92t100.5 -142.5t37.5 -183q0 -112 -44.5 -207t-121 -164t-178 -108t-216.5 -39q-143 0 -257.5 50.5t-194.5 137.5t-123 202.5t-43 244.5zM502 316q48 -48 106 -74.5t122 -26.5q65 0 122 18.5t99 53t66.5 85t24.5 113.5q0 44 -15 83.5t-45 69.5
t-74 47.5t-102 17.5q-65 0 -121 -29t-97.5 -76.5t-65.5 -108.5t-24 -124q0 -12 1 -24.5t3 -24.5z" />
    <glyph glyph-name="seven" unicode="7" horiz-adv-x="1118" 
d="M328 0q0 38 11 105.5t32.5 155t54 191t74.5 212.5t93.5 219t112.5 212l-503 -8q-33 0 -56.5 -1.5t-39 -5t-25.5 -8t-17 -10.5l-7 5v270l612 -3h107.5t119.5 1t115.5 2.5t95.5 3.5l-180 -370q-74 -152 -128 -277t-89 -228t-51.5 -187t-16.5 -153q0 -26 1 -54.5t6 -71.5
h-322z" />
    <glyph glyph-name="eight" unicode="8" horiz-adv-x="1418" 
d="M121 429q0 94 45.5 177.5t141.5 146.5q-42 49 -64 107t-22 112q0 78 32.5 148t96.5 122.5t159 83.5t220 31q124 0 218 -33.5t157 -86.5t95 -117.5t32 -125.5q0 -40 -10 -77.5t-28 -71.5t-42 -63.5t-52 -53.5q100 -42 147 -117.5t47 -189.5q0 -93 -43 -175t-121 -143
t-187.5 -96t-241.5 -35q-113 0 -217.5 30.5t-185 89t-129 143.5t-48.5 194zM477 978q0 -33 21 -62.5t67.5 -55t120.5 -45.5t181 -34q52 29 81 75t29 94q0 36 -17 66.5t-50 53t-81.5 35t-111.5 12.5q-115 0 -177.5 -38t-62.5 -101zM376 435q0 -49 23.5 -90t70 -70.5t115 -46
t157.5 -16.5q70 0 125 14t93 38.5t58.5 56.5t20.5 68q0 34 -20 60t-57.5 45.5t-92.5 33t-125 24.5q-50 7 -88.5 15t-68.5 16t-53 16t-42 16q-58 -38 -87 -85t-29 -95z" />
    <glyph glyph-name="nine" unicode="9" horiz-adv-x="1384" 
d="M161 118q0 80 -0.5 134t-2 89.5t-3.5 55.5t-5 32l4 6q34 -52 82.5 -92.5t108 -69t128 -43.5t141.5 -15q96 0 174 27t133 80t85 131t30 180v24q-36 -58 -83.5 -101.5t-102 -73t-114.5 -44t-121 -14.5q-108 0 -199 32t-156.5 90.5t-102.5 140.5t-37 181q0 97 40 185.5
t115 155.5t182 106.5t241 39.5q149 0 259.5 -56t183 -152t108 -223t35.5 -269t-45 -266t-132.5 -216t-215.5 -145t-293 -53q-132 0 -240.5 36.5t-196.5 106.5zM626 666q65 0 123 18.5t101.5 49.5t69 72.5t25.5 88.5q0 43 -17.5 82.5t-50.5 69.5t-81.5 48t-109.5 18
q-69 0 -126.5 -17t-98.5 -47.5t-63.5 -72.5t-22.5 -93q0 -53 20 -93t54.5 -68t80 -42t96.5 -14z" />
    <glyph glyph-name="colon" unicode=":" horiz-adv-x="530" 
d="M119 610q5 34 7 69t2 70q0 16 -0.5 33.5t-1.5 34.5t-2.5 32l-2.5 25h290q-2 -28 -3.5 -67.5t-1.5 -70.5q0 -35 0.5 -66t4.5 -60h-292zM119 0q5 34 7 69t2 70q0 16 -0.5 33.5t-1.5 34.5t-2.5 32l-2.5 25h290q-2 -28 -3.5 -67.5t-1.5 -70.5q0 -35 0.5 -66t4.5 -60h-292z
" />
    <glyph glyph-name="semicolon" unicode=";" horiz-adv-x="530" 
d="M132 450q4 31 6 62.5t2 63.5q0 29 -2 62t-4 52h263q-2 -25 -3 -61.5t-1 -64.5q0 -32 0.5 -60t3.5 -54h-265zM157 43q0 39 -2 82.5t-9 94.5l249 40q4 -28 7 -51t5 -44t3 -41t1 -42q0 -49 -6 -99t-16.5 -92.5t-24 -73t-27.5 -39.5q-11 -7 -29.5 -15t-46 -16.5t-67 -18
t-92.5 -20.5l-6 6q9 16 19.5 50.5t20 79.5t15.5 97t6 102z" />
    <glyph glyph-name="less" unicode="&#x3c;" horiz-adv-x="1239" 
d="M282 648l675 417v-281l-440 -248l440 -271v-280l-675 449v214z" />
    <glyph glyph-name="equal" unicode="=" horiz-adv-x="1239" 
d="M168 962q15 -4 45 -5t87 -1h639q57 0 87 1t45 5l3 -247q-29 3 -60.5 4t-63.5 1h-661q-32 0 -63.5 -1t-60.5 -4zM168 542q15 -4 45 -5t87 -1h639q57 0 87 1t45 5l3 -247q-29 3 -60.5 4t-63.5 1h-661q-32 0 -63.5 -1t-60.5 -4z" />
    <glyph glyph-name="greater" unicode="&#x3e;" horiz-adv-x="1239" 
d="M282 265l439 271l-439 248v281l675 -417v-214l-675 -449v280z" />
    <glyph glyph-name="question" unicode="?" horiz-adv-x="956" 
d="M410 343q-63 24 -94 69.5t-31 108.5q0 23 7.5 51.5t29.5 63t60.5 77t100.5 94.5q42 35 68.5 61.5t41.5 48.5t20.5 41.5t5.5 42.5q0 36 -17 64.5t-47 48.5t-69.5 30.5t-84.5 10.5q-32 0 -71 -8.5t-77 -27t-71 -47t-54 -68.5l-7 -2v13q0 10 -1 18.5l-3 25.5q-1 9 -3.5 22
t-8 33.5t-14 51t-21.5 75.5q70 66 158 100t209 34q99 0 180 -30t138.5 -79.5t89 -114.5t31.5 -134q0 -35 -8.5 -68.5t-29.5 -70t-57 -77t-90 -88.5q-52 -46 -82 -76.5t-45 -51.5t-19 -35.5t-4 -26.5q0 -28 17.5 -45.5t39.5 -21.5q-20 -15 -45 -31t-50.5 -31.5t-49.5 -28.5
t-43 -22zM311 0q4 31 6 62.5t2 63.5q0 29 -2 62t-4 52h263q-2 -25 -3 -61.5t-1 -64.5q0 -32 0.5 -60t3.5 -54h-265z" />
    <glyph glyph-name="at" unicode="@" horiz-adv-x="2478" 
d="M205 428q0 120 35.5 235.5t100.5 217.5t157.5 188t207 148.5t248.5 97t282 34.5q169 0 311 -32t257.5 -89t203 -135t146 -169.5t88.5 -193.5t30 -207q0 -131 -39 -231.5t-102.5 -168.5t-145.5 -103t-169 -35q-96 0 -164 27t-114 75q-67 -48 -148 -75t-175 -27
q-117 0 -209.5 37t-156.5 99t-98 143t-34 168q0 91 39 171.5t109 141t166.5 95.5t210.5 35q54 0 104 -10t99 -29v19h253v-455q0 -48 5.5 -83t19.5 -57.5t38.5 -33.5t62.5 -11q40 0 75 15.5t61 48.5t41.5 84t15.5 122q0 139 -54 258.5t-154.5 207.5t-242.5 138.5t-319 50.5
q-194 0 -341 -59t-246 -158.5t-149.5 -229.5t-50.5 -272q0 -147 56 -273.5t163 -220t262 -147t352 -53.5q109 0 212 14t188.5 36.5t147.5 50t88 54.5l6 -3l-72 -240q-106 -56 -248.5 -91t-329.5 -35q-245 0 -444.5 61.5t-340.5 179t-218 287.5t-77 387zM980 434
q0 -46 16.5 -85t49.5 -67.5t82.5 -45t115.5 -16.5q54 0 108 15t96 41q-3 27 -3 56v266q-35 20 -85.5 33.5t-113.5 13.5q-62 0 -111 -16t-83.5 -44.5t-53 -67t-18.5 -83.5z" />
    <glyph glyph-name="A" unicode="A" horiz-adv-x="1259" 
d="M455 1219q17 48 23 70.5t6 33.5q0 6 -1 8l1 2q43 -2 76 -2.5t62 -0.5t65.5 0.5t78.5 1.5l1 -2q-2 -6 -2 -8q0 -10 6 -32.5t24 -71.5l444 -1221q-20 1 -47 1.5t-52 1t-44.5 0.5h-23.5h-132l-94 288h-452l-94 -296q-54 5 -107.5 6.5t-93.5 1.5h-79zM768 528l-151 465
l-147 -465h298z" />
    <glyph glyph-name="B" unicode="B" horiz-adv-x="1221" 
d="M180 1324q90 16 167.5 23.5t143.5 7.5q128 0 219.5 -28t150 -73t86 -102.5t27.5 -116.5q0 -58 -23 -113.5t-69 -100.5q61 -26 109.5 -66t81.5 -90t50.5 -107.5t17.5 -117.5q0 -105 -44 -190.5t-127 -146.5t-203 -94.5t-272 -33.5q-34 0 -76 3t-84.5 7.5t-83 10
t-71.5 10.5v1318zM435 874q17 -4 35.5 -5.5t35.5 -1.5q55 0 94.5 12.5t64 32t36 43t11.5 46.5q0 58 -55.5 91t-148.5 33q-45 0 -73 -3v-248zM435 228q70 -17 138 -17q76 0 134.5 17t98.5 48.5t60.5 75t20.5 96.5q0 41 -21 78.5t-62 66.5t-101 46t-138 17q-38 0 -71 -4.5
t-59 -11.5v-412z" />
    <glyph glyph-name="C" unicode="C" horiz-adv-x="1304" 
d="M100 649q0 160 58.5 290.5t159.5 222.5t237 142.5t292 50.5q107 0 185 -17t141 -48v-308l-2 -2q-19 29 -53 54t-77.5 43t-94.5 28t-105 10q-109 0 -198.5 -33.5t-153.5 -93.5t-99 -142t-35 -179q0 -127 42 -213.5t107.5 -139.5t144.5 -76t153 -23q55 0 111.5 12.5
t108 36.5t95.5 58t74 77l3 -2v-285q-76 -63 -182 -100t-238 -37q-156 0 -281 50t-212.5 139t-134 213t-46.5 272z" />
    <glyph glyph-name="D" unicode="D" horiz-adv-x="1300" 
d="M180 1339q67 8 134 12t130 4q186 0 329 -50t240 -140t147 -214t50 -272q0 -172 -58.5 -303.5t-160 -220.5t-238 -134.5t-291.5 -45.5q-31 0 -66.5 2t-72.5 5t-73.5 8t-69.5 11v1338zM435 221q45 -6 93 -6q86 0 163.5 26t135.5 78t92 129.5t34 179.5q0 112 -33.5 202
t-96.5 153.5t-153 97.5t-203 34h-16t-16 -1v-893z" />
    <glyph glyph-name="E" unicode="E" horiz-adv-x="1049" 
d="M180 1337q27 -2 59.5 -3.5t67 -2l69 -1t66.5 -0.5q96 0 219 1.5t264 6.5q-3 -24 -5 -58t-3.5 -68t-2 -63.5t-0.5 -45.5q0 -14 2 -24l-2 -3q-14 4 -27 7t-29.5 4.5t-38.5 2.5t-53 1h-331v-255h292q57 0 87 1t45 5l3 -247q-29 3 -60.5 4t-63.5 1h-303v-360h424
q39 0 57.5 3.5t28.5 8.5l4 -1v-251h-769v1337z" />
    <glyph glyph-name="F" unicode="F" horiz-adv-x="1025" 
d="M180 1337q27 -2 59.5 -3.5t67 -2l69 -1t66.5 -0.5q96 0 219 1.5t264 6.5q-3 -24 -5 -58t-3.5 -68t-2 -63.5t-0.5 -45.5q0 -14 2 -24l-2 -3q-14 4 -27 7t-29.5 4.5t-38.5 2.5t-53 1h-331v-275h292q57 0 87 1t45 5l3 -247q-29 3 -60.5 4t-63.5 1h-303v-580h-255v1337z" />
    <glyph glyph-name="G" unicode="G" horiz-adv-x="1336" 
d="M100 630q0 92 21.5 181.5t63.5 170t103.5 149t142.5 118.5t180 78t215 28q108 0 185 -23.5t134 -66.5l-16 -295l-8 -2q-16 31 -47.5 58t-72 46.5t-87.5 31t-95 11.5q-104 0 -189.5 -36t-146.5 -100t-94.5 -152.5t-33.5 -193.5q0 -93 29.5 -170t80.5 -132t118.5 -85.5
t143.5 -30.5q56 0 104.5 6.5t84 22t55.5 40.5t20 63v206h-129q-36 0 -57 -1.5t-33 -3.5t-16.5 -5.5t-6.5 -7.5l-3 1l-9 261q6 -2 33.5 -3.5t62.5 -2.5t71 -1.5t60 -0.5h118q24 0 50 1t50 3.5t45 5t35 5.5l3 -2q-5 -9 -8.5 -20t-6 -28.5t-3.5 -45t-1 -69.5v-310
q0 -76 -38.5 -140.5t-107.5 -112t-163.5 -74.5t-206.5 -27q-138 0 -253.5 51t-199 139.5t-130.5 208t-47 256.5z" />
    <glyph glyph-name="H" unicode="H" horiz-adv-x="1300" 
d="M180 1335q24 -2 41 -3t30.5 -1.5t25.5 -0.5h27q40 0 72.5 2t58.5 6v-533h430v530q51 -3 80 -4t49 -1q51 0 86 3t40 5v-1344q-8 1 -26.5 2t-43.5 2t-55 1.5t-60 0.5h-70v565h-430v-571q-15 2 -67 4t-156 2h-32v1335z" />
    <glyph glyph-name="I" unicode="I" horiz-adv-x="627" 
d="M186 1334q25 -1 41.5 -2t31 -1.5t30 -0.5h36.5q33 0 66.5 2t49.5 6v-1344q-9 1 -26 2t-40 2t-51 1.5t-58 0.5h-80v1334z" />
    <glyph glyph-name="J" unicode="J" horiz-adv-x="921" 
d="M50 392l7 2q18 -45 44.5 -78.5t60 -56t73 -34t81.5 -11.5q52 0 91 16t65.5 45.5t40 70t13.5 88.5v901q24 -2 39.5 -3t28.5 -1.5t26.5 -0.5h34.5q38 0 70 2t56 6v-896q0 -113 -34 -200t-93 -146.5t-139 -90t-171 -30.5q-87 0 -157.5 21.5t-136.5 76.5v319z" />
    <glyph glyph-name="K" unicode="K" horiz-adv-x="1189" 
d="M180 1334q20 -1 40.5 -2t38.5 -1.5t31.5 -0.5h21.5q39 0 74.5 2.5t48.5 5.5v-563l375 559q16 -1 38.5 -2t44.5 -1.5t41 -0.5h29q19 0 40 0.5t41.5 1.5t37.5 2.5t28 3.5l-333 -472l337 -786q14 -32 24.5 -50t20.5 -30h-61q-114 0 -175.5 -2t-87.5 -6q-5 31 -12.5 61
t-17.5 56l-215 492l-155 -221v-386q-23 2 -66.5 4t-109.5 2h-79v1334z" />
    <glyph glyph-name="L" unicode="L" horiz-adv-x="936" 
d="M180 1336q8 -2 42.5 -4t82.5 -2q21 0 50 1t80 3v-1094h267q15 0 36 0.5t42 1.5t39 2t27 2l-4 -122q-1 -23 -1.5 -46t-1 -41t-0.5 -30v-14q-28 2 -58.5 3.5t-68 2t-84.5 1t-108 0.5h-165q-30 0 -58 -0.5t-51 -1.5t-40 -2t-26 -2v1342z" />
    <glyph glyph-name="M" unicode="M" horiz-adv-x="1545" 
d="M180 1334q32 -2 55.5 -3t42.5 -1q57 0 96.5 2t55.5 6l336 -571l323 571q8 -2 26.5 -3.5t41.5 -2.5t48 -1.5t46 -0.5q35 0 58.5 1t55.5 3v-1334h-80q-30 0 -58 -0.5t-51 -1.5t-40 -2t-26 -2v913l-337 -602l-338 554v-865q-9 1 -26 2t-40 2t-51 1.5t-58 0.5h-80v1334z" />
    <glyph glyph-name="N" unicode="N" horiz-adv-x="1276" 
d="M160 0q3 17 4.5 33.5t1.5 40.5v1256h220q52 -98 105 -192t110 -190.5t120 -200t135 -219.5v734q0 55 -10 68h270q-2 -16 -3.5 -37.5t-1.5 -50.5v-1242h-218q-55 85 -99.5 153.5t-83 127.5t-73 113.5t-68.5 110.5t-70 118.5t-78 138.5v-762h-261z" />
    <glyph glyph-name="O" unicode="O" horiz-adv-x="1565" 
d="M100 637q0 143 49.5 273t141 229t220.5 157.5t289 58.5q131 0 251.5 -44t212.5 -130t146.5 -212t54.5 -290q0 -105 -25.5 -198t-72 -171t-110.5 -140.5t-141 -105.5t-164 -66t-179 -23q-141 0 -263.5 48t-213.5 135t-143.5 209t-52.5 270zM358 648q0 -93 34.5 -172.5
t93.5 -137.5t139 -90.5t171 -32.5q86 0 161.5 30.5t131 88t87.5 139.5t32 184q0 90 -29 172t-84.5 144.5t-135 99.5t-179.5 37q-98 0 -176 -37.5t-133 -101t-84 -147.5t-29 -176z" />
    <glyph glyph-name="P" unicode="P" horiz-adv-x="1110" 
d="M180 1337q123 18 245 18q135 0 245 -35t188 -100.5t120 -160t42 -213.5q0 -78 -22.5 -146t-61.5 -123.5t-91.5 -99t-113.5 -73.5t-127 -45.5t-132 -15.5q-9 0 -18 0.5t-19 1.5v-345h-255v1337zM435 584q6 -2 11.5 -2h12.5q58 0 113 15t97.5 45.5t68.5 76.5t26 109
t-21.5 115.5t-59.5 90.5t-91 59t-117 21h-21t-19 -1v-529z" />
    <glyph glyph-name="Q" unicode="Q" horiz-adv-x="1565" 
d="M100 637q0 143 49.5 273t141 229t220.5 157.5t289 58.5q135 0 256 -45.5t211.5 -132.5t144 -212.5t53.5 -285.5q0 -92 -20 -174.5t-56 -154t-86.5 -131.5t-111.5 -106q45 -21 76.5 -35.5t55 -23t42.5 -12.5t40 -4q15 0 29 7.5t25 25.5l4 -3l-76 -211q-9 -24 -20.5 -33.5
t-32.5 -9.5q-18 0 -38.5 3.5t-46.5 11.5t-58 20.5t-74 31.5q-53 24 -96 40t-83 26.5t-79.5 17t-85.5 10.5q-141 0 -263.5 48t-213.5 135t-143.5 209t-52.5 270zM358 648q0 -93 34.5 -172.5t93.5 -137.5t139 -90.5t171 -32.5q86 0 161.5 30.5t131 88t87.5 139.5t32 184
q0 90 -29 172t-84.5 144.5t-135 99.5t-179.5 37q-98 0 -176 -37.5t-133 -101t-84 -147.5t-29 -176z" />
    <glyph glyph-name="R" unicode="R" horiz-adv-x="1182" 
d="M180 1337q62 9 126.5 13.5t147.5 4.5q138 0 246.5 -31.5t182.5 -88t113 -135.5t39 -174q0 -97 -44 -178t-129 -138l208 -454q32 -71 53 -107.5t39 -50.5l-5 -5q-25 4 -49 5.5t-48 1.5q-38 0 -86.5 -1.5t-111.5 -6.5l-228 533q-30 -5 -61.5 -7.5t-65.5 -2.5q-17 0 -35.5 1
t-36.5 3v-519h-255v1337zM435 750q27 -5 52 -5.5t47 -0.5q52 0 97 14t78 38t52 56t19 69q0 39 -20 74.5t-58.5 62t-95.5 42t-131 15.5h-21t-19 -1v-364z" />
    <glyph glyph-name="S" unicode="S" horiz-adv-x="1216" 
d="M131 456l4 3q26 -57 70 -102t102.5 -76.5t128 -48.5t146.5 -17q61 0 115.5 10t95 31.5t64 55t23.5 80.5q0 34 -13.5 62t-44.5 49.5t-82 35.5t-126 21q-135 12 -227 44.5t-149 82t-81.5 115t-24.5 143.5q0 88 36 163t101.5 130t155.5 86t198 31q66 0 120.5 -7t101 -20
t86.5 -31.5t76 -40.5l-19 -294l-7 -2q-24 36 -62 65t-86 49t-103.5 30.5t-115.5 10.5q-54 0 -96 -11t-71.5 -29.5t-45 -44t-15.5 -54.5q0 -35 13 -61.5t46.5 -47t91 -36t146.5 -27.5q122 -15 208 -47t140.5 -80.5t79.5 -113.5t25 -147q0 -79 -23 -142.5t-62.5 -112.5
t-93.5 -84t-115.5 -58t-128 -33.5t-131.5 -10.5q-149 0 -263 34.5t-199 92.5z" />
    <glyph glyph-name="T" unicode="T" horiz-adv-x="1100" 
d="M420 1106h-228q-33 0 -54 -1t-34.5 -4t-22.5 -8t-18 -12l-3 1v256l3 3q9 -3 21 -5t32 -3.5t50 -2t75 -0.5h667q33 0 54 1t34.5 4t22.5 8t18 12l3 -1v-256l-3 -3q-9 3 -21 5t-32 3.5t-50 2t-75 0.5h-180v-1112q-16 1 -69 3.5t-158 2.5h-32v1106z" />
    <glyph glyph-name="U" unicode="U" horiz-adv-x="1321" 
d="M180 1335q51 -3 77 -4t40 -1q33 0 54.5 0.5t36.5 1.5t26.5 2.5t23.5 3.5v-863q0 -66 18 -115t50 -81t75 -48t94 -16q45 0 83.5 16t66 52.5t43 95.5t15.5 146v810q24 -2 42.5 -3t35 -1.5t33 -0.5h37.5q38 0 62.5 2t47.5 6v-827q0 -127 -34 -226.5t-95 -168.5t-146.5 -105
t-187.5 -36q-108 0 -199.5 29.5t-157.5 92t-103.5 159.5t-37.5 232v847z" />
    <glyph glyph-name="V" unicode="V" horiz-adv-x="1124" 
d="M442 0q4 7 4 17q0 8 -1.5 18t-9 36t-22 75t-41.5 134l-332 1054q31 -2 68.5 -3t96.5 -1q40 0 73 2.5t43 5.5l262 -898l223 894q30 -2 76.5 -3t106.5 -1q42 0 63.5 2t31.5 6l-315 -1055q-22 -74 -35 -118t-19.5 -71.5t-8 -44t-1.5 -34.5q0 -9 4 -16l-2 -3q-11 1 -32 2
t-47 1.5t-55 0.5h-56h-40t-34 -2z" />
    <glyph glyph-name="W" unicode="W" horiz-adv-x="1674" 
d="M392 0q4 7 4 17q0 8 -2 18t-9.5 36t-22.5 74.5t-41 134.5l-301 1054q32 -2 70 -3t98 -1q40 0 67.5 2.5t37.5 5.5l230 -903l216 899q15 -1 26.5 -2t22.5 -1.5t24.5 -0.5h31.5q35 0 66 1.5t64 6.5l205 -903l210 899q30 -2 70 -3t100 -1q42 0 63.5 2t31.5 6l-288 -1055
q-22 -73 -34.5 -117.5t-18.5 -72t-7 -44t-1 -34.5q0 -9 4 -16l-2 -3q-11 1 -36 2t-55 1.5t-61.5 0.5h-54.5h-40t-34 -2l-1 2q4 7 4 17q0 7 -1 16.5t-5.5 35t-14 75t-27.5 136.5l-135 600l-137 -597q-16 -75 -25 -119.5t-13 -71.5t-5 -43t-1 -34q0 -9 4 -16l-2 -3
q-21 3 -71.5 3.5t-116.5 0.5h-49t-37 -2z" />
    <glyph glyph-name="X" unicode="X" horiz-adv-x="1159" 
d="M0 0q19 21 42 55.5t48.5 77t52 90.5t53.5 97l224 401l-212 411q-22 44 -39 76t-31 55t-25.5 39t-22.5 28h336q-4 -9 -4 -22t5.5 -30.5t19.5 -44.5l127 -263l129 263q13 27 16.5 44.5t4.5 30.5q0 13 -4 22h352q-11 -12 -25 -29t-31 -40t-37.5 -55t-44.5 -74l-223 -401
l232 -462q10 -20 27 -55.5t38 -75t44.5 -77t46.5 -61.5h-323q-1 8 -3 16.5t-5.5 19t-9.5 24.5t-16 34l-187 376l-195 -376q-11 -20 -17 -34t-9 -24.5t-5 -18.5t-3 -17h-326z" />
    <glyph glyph-name="Y" unicode="Y" horiz-adv-x="1144" 
d="M479 0q6 17 9.5 57.5t3.5 124.5v361q-30 59 -66.5 127.5t-76.5 140.5t-82 144.5t-82 138.5q-56 92 -103 147t-91 89h355q11 -20 30 -55t42.5 -80t50.5 -95.5t53.5 -100.5t51 -96.5t43.5 -82.5q15 39 34 85.5t40 95t43 97t41.5 92t36 80t27.5 60.5h320q-15 -12 -36 -38
t-44 -60t-45.5 -73t-39.5 -78q-31 -64 -65.5 -135.5t-68 -144t-63 -142t-50.5 -128.5v-373q0 -32 2 -75.5t10 -82.5h-280z" />
    <glyph glyph-name="Z" unicode="Z" horiz-adv-x="1125" 
d="M653 1090h-336q-58 0 -100 -1.5t-71.5 -4.5t-48 -7t-28.5 -8q5 21 8.5 61.5t3.5 79.5v30q0 14 -0.5 33t-2.5 57h988l-582 -1090h383q55 0 89 1t55.5 4t35 7.5t28.5 11.5v-279q-43 4 -76 7t-69 4.5t-82 2.5t-115 1h-683z" />
    <glyph glyph-name="bracketleft" unicode="[" horiz-adv-x="885" 
d="M177 1112q0 32 -0.5 78.5l-1 93t-1.5 86.5t-2 60h280h49t69.5 0.5t69 1.5t46.5 3l-3 -247q-8 2 -36 3t-64.5 2t-75 1h-66.5h-9v-1068h9h66.5t75 1t64.5 2t36 3l3 -247q-15 1 -47 2t-68.5 1.5t-69.5 1t-49 0.5h-279q1 16 2 27.5t1.5 23t0.5 25v33.5v1113z" />
    <glyph glyph-name="backslash" unicode="\" horiz-adv-x="885" 
d="M124 1330h256l380 -1330h-256z" />
    <glyph glyph-name="bracketright" unicode="]" horiz-adv-x="885" 
d="M202 132q7 -2 35.5 -3t65 -2t75 -1h66.5h9v1068h-9h-66.5t-75 -1t-65 -2t-35.5 -3l-3 247q14 -2 46.5 -3t69 -1.5t69.5 -0.5h49h280q-2 -20 -3 -60t-1.5 -86.5t-0.5 -93v-78.5v-1113v-34.5v-25t1 -22.5t3 -27h-279q-16 0 -49 -0.5t-69.5 -1t-68.5 -1.5t-47 -2z" />
    <glyph glyph-name="asciicircum" unicode="^" horiz-adv-x="1239" 
d="M503 1415h214l417 -760h-282l-239 483l-228 -483h-281z" />
    <glyph glyph-name="underscore" unicode="_" horiz-adv-x="1061" 
d="M1063 -176v-180h-1064v180h1064z" />
    <glyph glyph-name="grave" unicode="`" horiz-adv-x="759" 
d="M171 1513l-1 7q40 -4 74 -7t70 -5.5t78 -3.5t98 -1l169 -313h-226z" />
    <glyph glyph-name="a" unicode="a" horiz-adv-x="1084" 
d="M75 332q0 65 31.5 126.5t96.5 109t165.5 76.5t237.5 29q9 0 18.5 -0.5t19.5 -0.5l52 -4q-4 50 -18 83t-40.5 53t-65 28t-92.5 8q-40 0 -85.5 -8t-88.5 -22t-79 -32t-57 -38l-3 2l-30 230q76 42 175.5 67.5t205.5 25.5q108 0 188.5 -27.5t133 -80t78.5 -127.5t26 -169
v-362q0 -63 20 -100t62 -58l-181 -166q-47 24 -78 67q-60 -29 -126.5 -43t-135.5 -14q-101 0 -180.5 24t-135 68.5t-85 109t-29.5 145.5zM320 339q0 -63 58 -103t170 -40q81 0 154 32q-3 30 -3 62v183q-18 4 -45.5 4.5t-50.5 0.5q-77 0 -131 -12.5t-88 -33t-49 -45
t-15 -48.5z" />
    <glyph glyph-name="b" unicode="b" horiz-adv-x="1143" 
d="M140 1430h245v-421q54 29 113.5 42.5t119.5 13.5q93 0 175.5 -38.5t145 -108t98.5 -168t36 -218.5q0 -130 -39 -231.5t-107 -171.5t-159.5 -107t-196.5 -37q-88 0 -166.5 24.5t-137 75t-93 127.5t-34.5 181v1037zM385 396q0 -52 14.5 -86t40.5 -54t62.5 -28t81.5 -8
q52 0 97 23t77.5 65.5t51 102t18.5 132.5q0 76 -19.5 131t-54 91t-81.5 53t-101 17q-43 0 -94 -21.5t-93 -57.5v-360z" />
    <glyph glyph-name="c" unicode="c" horiz-adv-x="1059" 
d="M80 506q0 108 40.5 209t116.5 179t184 124.5t243 46.5q97 0 174 -22.5t146 -67.5l-40 -266l-7 1q-49 60 -123.5 92.5t-183.5 32.5q-62 0 -117.5 -22t-97 -61t-66 -93.5t-24.5 -118.5q0 -72 25.5 -131t71 -101t108.5 -65t139 -23q49 0 94.5 11.5t83 33t66.5 51.5t46 68
l7 -3l23 -274q-72 -57 -162 -89.5t-199 -32.5q-115 0 -215 38t-174 106.5t-116.5 164.5t-42.5 212z" />
    <glyph glyph-name="d" unicode="d" horiz-adv-x="1198" 
d="M80 509q0 118 42 219.5t117.5 176.5t181 117.5t231.5 42.5q76 0 151 -20v385h245v-1009q0 -68 3.5 -112t12.5 -73.5t24.5 -48.5t39.5 -36l-188 -166q-54 29 -84 71q-69 -38 -138.5 -54.5t-123.5 -16.5q-119 0 -214 40t-162 110t-102.5 166t-35.5 208zM322 534
q0 -69 20 -127t60.5 -101t101 -67t140.5 -24q43 0 82.5 7.5t76.5 24.5v554q-72 29 -162 29q-72 0 -130.5 -22t-100.5 -61t-65 -93.5t-23 -119.5z" />
    <glyph glyph-name="e" unicode="e" horiz-adv-x="1170" 
d="M70 516q0 115 40 215t113 174.5t176.5 117t231.5 42.5q108 0 195 -37.5t147.5 -103t93.5 -153.5t33 -189q0 -38 -3.5 -67t-8.5 -41q-25 -7 -65.5 -12.5t-93 -9t-115.5 -5t-133 -1.5h-82.5t-96 0.5t-94 0.5h-76.5q26 -109 119 -168t246 -59q58 0 109 10t92 25t71 31.5
t45 29.5q-2 -49 -5 -108t-10 -145q-25 -17 -64.5 -31t-86 -24.5t-96 -16.5t-95.5 -6q-126 0 -233.5 39t-186 109t-123 167.5t-44.5 215.5zM342 657q24 -2 58 -3t70 -1h69h54q23 0 54.5 0.5t65.5 1t66.5 2t58.5 3.5q-18 93 -74.5 144t-163.5 51q-47 0 -88 -14.5t-74 -40.5
t-57.5 -62.5t-38.5 -80.5z" />
    <glyph glyph-name="f" unicode="f" horiz-adv-x="760" 
d="M187 696h-126v234h126v18q0 117 30.5 215.5t89.5 170t145.5 111.5t198.5 40q20 0 47 -3t41 -9l38 -251l-2 -5q-16 16 -48 27t-71 11q-53 0 -94.5 -19.5t-70.5 -55t-44 -86t-15 -111.5v-53h265q-3 -11 -5.5 -45.5t-2.5 -100.5v-88h-257v-696h-245v696z" />
    <glyph glyph-name="g" unicode="g" horiz-adv-x="1215" 
d="M214 -11q-43 36 -62 82t-19 106t28 111.5t74 88.5q-60 51 -94 118.5t-34 155.5q0 86 31.5 161.5t91.5 131.5t147 88.5t198 32.5q79 0 147 -18.5t125 -53.5q37 16 78 35.5t77.5 40t66.5 41.5t47 40l6 -1q5 -13 11.5 -35.5t14 -49.5t14.5 -55t13 -53t10 -43.5t5 -25.5
q-16 -17 -38.5 -29.5t-48 -21t-52.5 -14t-52 -8.5q29 -70 29 -150q0 -84 -32 -156t-91.5 -125.5t-144 -83.5t-189.5 -30q-93 0 -169 22q-17 -18 -24.5 -36t-7.5 -35q0 -18 12 -32t46 -26.5t95 -25t159 -27.5q124 -20 214.5 -54t148.5 -83t86 -115t28 -151q0 -90 -41 -167
t-114.5 -134t-176 -89t-224.5 -32q-126 0 -229 29t-175.5 82t-112 128t-39.5 168q0 97 43.5 172.5t123.5 125.5zM337 663q0 -35 17 -67.5t48.5 -57.5t77.5 -40t103 -15q39 0 77.5 13t69 37.5t49.5 58.5t19 76q0 44 -18 78t-49.5 57.5t-74.5 35.5t-92 12q-58 0 -100.5 -14.5
t-70.5 -40t-42 -60t-14 -73.5zM294 -306q0 -40 22.5 -76t64.5 -63t101.5 -43t133.5 -16q73 0 125.5 14t86 37.5t49 54.5t15.5 66q0 39 -15 70.5t-55.5 57t-112.5 46t-186 37.5l-85 15q-72 -35 -108 -89t-36 -111z" />
    <glyph glyph-name="h" unicode="h" horiz-adv-x="1136" 
d="M140 1430h245v-463q33 25 64.5 43.5t63.5 30.5t66 18t72 6q84 0 152.5 -29t117 -82.5t74.5 -128t26 -165.5v-245v-152.5t1 -105t2 -67.5t3 -39q4 -26 12.5 -36t14.5 -18l-2 -4q-14 1 -33 2.5t-41.5 2.5t-47 1.5t-48.5 0.5q-17 0 -43.5 -0.5t-62.5 -2.5v579
q0 76 -17 125.5t-43.5 78t-59.5 39.5t-66 11q-58 0 -110 -34.5t-95 -100.5v-583q0 -51 1 -75t3 -37h-249v1430z" />
    <glyph glyph-name="i" unicode="i" horiz-adv-x="560" 
d="M125 1316q37 60 77.5 111t71.5 85l191 -151q-20 -25 -37 -47t-33.5 -44t-33 -45.5t-35.5 -52.5zM157 1045h250v-933q0 -51 1 -75t3 -37h-254v1045z" />
    <glyph glyph-name="j" unicode="j" horiz-adv-x="589" 
d="M150 1316q37 60 77.5 111t71.5 85l191 -151q-20 -25 -37 -47t-33.5 -44t-33 -45.5t-35.5 -52.5zM-88 -117q30 -20 59.5 -29t67.5 -9q35 0 62 12t46 38.5t28.5 68.5t9.5 101v980h245v-908q0 -150 -28 -250.5t-81 -161t-130.5 -85.5t-176.5 -25l-104 263z" />
    <glyph glyph-name="k" unicode="k" horiz-adv-x="1071" 
d="M140 1430h245v-812l292 427h302l-299 -391l251 -436q21 -37 39.5 -68t36 -57t35.5 -49t39 -44h-148q-62 0 -96 -5t-55 -10l-263 464l-58 -76q-21 -27 -40 -49.5t-36 -40.5v-151q0 -51 2.5 -85t4.5 -47h-252v1430z" />
    <glyph glyph-name="l" unicode="l" horiz-adv-x="560" 
d="M155 1430h250v-1318q0 -51 1 -75t3 -37h-254v1430z" />
    <glyph glyph-name="m" unicode="m" horiz-adv-x="1651" 
d="M140 1045h245v-96q34 30 67 51.5t66.5 36t69 21.5t76.5 7q90 0 150.5 -39t96.5 -108q74 77 148 112t164 35q82 0 142 -29t99.5 -82.5t59 -128t19.5 -165.5v-245v-152.5t1 -105t2 -67.5t3 -39q4 -26 12.5 -36t14.5 -18l-2 -4q-14 1 -33 2.5t-41.5 2.5t-47 1.5t-48.5 0.5
q-17 0 -43.5 -0.5t-62.5 -2.5v541q0 82 -9 138t-26.5 90.5t-43 49t-57.5 14.5q-65 0 -109.5 -40t-88.5 -116v-14q0 -122 0.5 -211.5t1 -154t1 -109t2 -77t3 -57.5t3.5 -51h-127h-41.5t-87.5 -3v542q0 81 -6 137t-20 90t-36 49t-54 15q-35 0 -64.5 -10.5t-55.5 -30.5t-50 -49
t-48 -67v-384q0 -71 0.5 -119t1.5 -80.5t2.5 -53t3.5 -36.5h-253v1045z" />
    <glyph glyph-name="n" unicode="n" horiz-adv-x="1152" 
d="M140 1045h245v-89q69 57 138 83t144 26q82 0 148.5 -29t113.5 -82.5t72.5 -128t25.5 -165.5v-245v-152.5t1 -105t2 -67.5t3 -39q4 -26 12.5 -36t14.5 -18l-2 -4q-14 1 -33 2.5t-41.5 2.5t-47 1.5t-48.5 0.5q-17 0 -43.5 -0.5t-62.5 -2.5v545q0 76 -12.5 131.5t-36 91.5
t-56 53t-71.5 17q-63 0 -119 -37t-102 -109v-561q0 -45 1.5 -74t6.5 -54h-253v1045z" />
    <glyph glyph-name="o" unicode="o" horiz-adv-x="1235" 
d="M80 512q0 115 39 215.5t111 175.5t174 118.5t228 43.5q124 0 221.5 -40.5t164.5 -112t102 -169t35 -210.5q0 -112 -36 -211.5t-105 -174.5t-168.5 -118.5t-226.5 -43.5q-133 0 -234 43t-168.5 116t-102 168t-34.5 200zM329 529q0 -69 21.5 -126.5t61.5 -98t95.5 -63
t124.5 -22.5q65 0 115.5 22t85.5 62t53 95.5t18 123.5q0 67 -19 124.5t-56 99.5t-90.5 65.5t-122.5 23.5q-72 0 -126 -26.5t-90 -69.5t-53.5 -98t-17.5 -112z" />
    <glyph glyph-name="p" unicode="p" horiz-adv-x="1183" 
d="M385 -273q0 -51 1 -75t3 -37h-249v1430h245v-64q59 42 114.5 63t124.5 21q94 0 180.5 -32t153 -97.5t106 -165t39.5 -234.5q0 -90 -23 -166.5t-62 -138t-90 -108t-108 -78t-115.5 -47.5t-111.5 -16q-73 0 -121.5 10t-86.5 27v-292zM385 293q42 -38 90.5 -55.5t96.5 -17.5
q61 0 113.5 22.5t90.5 65t60 104t22 140.5q0 59 -14 103t-36.5 75.5t-50.5 51.5t-57 32t-56 16.5t-46 4.5q-57 0 -115 -23.5t-98 -65.5v-453z" />
    <glyph glyph-name="q" unicode="q" horiz-adv-x="1211" 
d="M80 486q0 129 37 234t102.5 179.5t155 115t194.5 40.5q76 0 138 -7t119 -32v29h245v-1430h-249q2 13 3 37t1 75v365q-29 -25 -58.5 -45t-62 -33.5t-70.5 -21t-84 -7.5q-101 0 -187 34t-149 98.5t-99 157.5t-36 211zM325 511q0 -62 16 -115.5t49 -92.5t83 -61t118 -22
q75 0 132.5 30.5t102.5 90.5v424q-21 20 -48.5 33.5t-57.5 21.5t-62 11.5t-62 3.5q-59 0 -108.5 -25t-85.5 -68.5t-56.5 -102.5t-20.5 -128z" />
    <glyph glyph-name="r" unicode="r" horiz-adv-x="749" 
d="M140 1045h245v-67q37 35 84 61t98 26q40 0 78 -6t64 -17l-18 -269l-4 -3q-17 33 -57 47.5t-86 14.5q-42 0 -85.5 -28t-73.5 -76v-616q0 -51 1 -75t3 -37h-249v1045z" />
    <glyph glyph-name="s" unicode="s" horiz-adv-x="1083" 
d="M90 88q3 47 8 96t10 88.5t8 65l3 25.5q1 0 7 -6q24 -28 68.5 -53t102 -44t124 -30t135.5 -11q57 0 94 8t59 20.5t31 28.5t9 31q0 17 -11.5 33t-38.5 30t-72.5 26t-113.5 21q-108 14 -184.5 42.5t-124.5 68t-70.5 89t-22.5 105.5q0 75 33.5 138t94.5 108.5t147.5 71
t193.5 25.5q112 0 205 -32t160 -86q-14 -54 -31.5 -109t-40.5 -116q-2 -8 -4 -8t-6.5 8t-8.5 13q-21 23 -52.5 42.5t-69.5 33t-81 21t-87 7.5q-104 0 -153 -28.5t-49 -64.5q0 -16 11.5 -31t42.5 -29t85.5 -27t140.5 -25q98 -14 166 -40t110 -63.5t60.5 -86t18.5 -107.5
q0 -76 -32 -140.5t-92 -111.5t-145.5 -73.5t-192.5 -26.5q-139 0 -251.5 23t-193.5 80z" />
    <glyph glyph-name="t" unicode="t" horiz-adv-x="805" 
d="M224 815h-151q-1 14 -1 29v30v111v43t1 17h151v285h245v-285h251v-230h-251v-408q0 -58 10 -94.5t29 -57t47.5 -28t65.5 -7.5q60 0 102 17.5t65 49.5h8l-34 -252q-11 -11 -32.5 -20t-49 -16t-58.5 -10.5t-61 -3.5q-77 0 -139.5 21.5t-106.5 67t-67.5 117t-23.5 170.5v454
z" />
    <glyph glyph-name="u" unicode="u" horiz-adv-x="1115" 
d="M120 630v152.5t-1 105t-2 67.5t-3 39q-3 19 -7 33t-8 22q26 -3 68 -3.5t92 -0.5q17 0 43.5 0.5t62.5 2.5v-579q0 -77 14 -125t39 -76t59 -38t74 -10q51 0 95.5 25.5t84.5 74.5v725h245v-917q0 -45 1.5 -74t6.5 -54h-253v81q-32 -26 -61.5 -44.5t-59 -30t-61.5 -16.5
t-69 -5q-82 0 -148.5 28.5t-113.5 80.5t-72.5 126t-25.5 165v245z" />
    <glyph glyph-name="v" unicode="v" horiz-adv-x="1040" 
d="M0 1045h286l255 -684l222 684h277l-399 -1045h-206z" />
    <glyph glyph-name="w" unicode="w" horiz-adv-x="1464" 
d="M0 1045h284l167 -683l166 683h217l178 -690l178 690h274l-324 -1045h-259l-158 578l-140 -578h-260z" />
    <glyph glyph-name="x" unicode="x" horiz-adv-x="1013" 
d="M368 531l-313 514h290l164 -303l163 303h270q-1 0 -18.5 -30t-44.5 -77t-60 -105t-65 -113.5t-59 -103t-42 -73.5l333 -543h-288l-182 315l-167 -315h-290z" />
    <glyph glyph-name="y" unicode="y" horiz-adv-x="972" 
d="M356 186l-359 859h276l216 -575l216 575h274q-25 -36 -56.5 -98.5t-62.5 -141.5q-87 -225 -159 -399t-130.5 -305.5t-105.5 -225t-84.5 -157t-66.5 -100.5t-52 -56l-242 90l5 6q25 15 53 39.5t62.5 72t78 124.5t99.5 197z" />
    <glyph glyph-name="z" unicode="z" horiz-adv-x="977" 
d="M10 -15q8 11 30 45.5t53 84t69 111.5t79 129t83 136t80 132.5t71 118t56 93.5h-216q-20 0 -44.5 -1.5t-50 -4.5t-50.5 -8t-45 -12q2 39 3 77.5t1 70.5q0 20 -0.5 32t-0.5 21t-0.5 16.5t-0.5 18.5h815l-506 -825h369q12 0 28.5 1t33.5 3.5t32 7.5t25 13l-86 -260
q-44 3 -97.5 5.5t-108 5t-104.5 3.5t-87 1t-89 -1t-110.5 -2.5t-119 -4.5t-112.5 -7z" />
    <glyph glyph-name="braceleft" unicode="{" horiz-adv-x="885" 
d="M205 160q0 21 3 44.5t12 49t26 53t45 56.5q13 30 23.5 54t18 44t11 37.5t3.5 35.5q0 81 -187 114v55q40 7 74 15t59 19t39.5 25t14.5 34q0 16 -2.5 31.5t-9 33.5t-17 41t-26.5 55q-49 48 -68 103t-19 106q0 46 20 95.5t64 90.5t113 67t167 26q29 0 66.5 -3.5t69.5 -8.5
l-10 -203l-4 -2q-34 8 -60.5 10.5t-46.5 2.5q-55 0 -89 -27.5t-34 -64.5q0 -35 23 -77.5t77 -93.5q27 -57 42.5 -101t15.5 -84q0 -21 -13 -39.5t-34.5 -35t-50.5 -30t-61 -23.5q34 -11 63 -24t50.5 -28t33.5 -32t12 -35q0 -35 -13.5 -77.5t-36.5 -93.5q-29 -32 -49.5 -57
t-33.5 -45t-19 -37t-6 -33q0 -20 9.5 -38.5t26.5 -33t40.5 -23.5t52.5 -9q24 0 49.5 2.5t51.5 10.5l4 -2l10 -203q-23 -4 -41 -6.5t-34 -3.5t-30.5 -1.5t-30.5 -0.5q-95 0 -164 21t-113.5 57t-65.5 84t-21 103z" />
    <glyph glyph-name="bar" unicode="|" horiz-adv-x="885" 
d="M315 1251q0 33 -0.5 57.5t-1 45t-1.5 38.5t-2 38h265q-2 -40 -3.5 -84.5t-1.5 -98.5v-1385q0 -51 1 -75t3 -37h-263q1 16 2 38.5t1.5 49.5t0.5 56.5v60.5v1296z" />
    <glyph glyph-name="braceright" unicode="}" horiz-adv-x="885" 
d="M190 110l4 2q26 -8 51.5 -10.5t49.5 -2.5q28 0 52 9t41 23.5t26.5 33t9.5 38.5q0 31 -25 70t-83 102q-23 51 -36.5 93.5t-13.5 77.5q0 18 12 35t33 32t50 28t63 24q-32 10 -60.5 23.5t-50 30t-34.5 35t-13 39.5q0 40 15.5 84t42.5 101q54 51 77 93.5t23 77.5
q0 37 -34 64.5t-89 27.5q-21 0 -47 -2.5t-60 -10.5l-4 2l-10 203q32 5 69.5 8.5t66.5 3.5q98 0 167 -26t113 -67t64 -90.5t20 -95.5q0 -51 -19 -106t-68 -103q-16 -32 -26.5 -55t-17 -41t-9 -33.5t-2.5 -31.5q0 -20 14.5 -34t39.5 -25t59 -19t74 -15v-55q-187 -33 -187 -114
q0 -18 3.5 -35.5t11 -37.5t17.5 -44t24 -54q28 -29 45 -56.5t26 -53t12 -49t3 -44.5q0 -55 -21 -103t-65.5 -84t-113.5 -57t-164 -21q-17 0 -31.5 0.5t-30 1.5t-33.5 3.5t-41 6.5z" />
    <glyph glyph-name="asciitilde" unicode="~" horiz-adv-x="1408" 
d="M88 396l-8 276q36 42 77.5 69.5t86 43.5t91 22.5t92.5 6.5q53 0 106.5 -20t107 -50t105.5 -65.5t102.5 -65.5t98.5 -50t92 -20q100 0 172.5 47.5t110.5 157.5l6 -3l19 -273q-24 -44 -62.5 -74.5t-84.5 -49.5t-95.5 -27t-95.5 -8q-62 0 -116.5 19.5t-104.5 49t-97.5 64
t-94.5 64t-95.5 49t-101.5 19.5q-50 0 -92 -9t-79 -30.5t-70 -57t-64 -88.5z" />
    <glyph glyph-name="nonbreakingspace" unicode="&#xa0;" horiz-adv-x="440" 
 />
    <glyph glyph-name="exclamdown" unicode="&#xa1;" horiz-adv-x="530" 
d="M134 1090q2 19 4 52t2 62q0 32 -2 63.5t-6 62.5h265q-3 -26 -3.5 -54t-0.5 -60q0 -28 1 -64.5t3 -61.5h-263zM136 950h80q30 0 58 0.5t51 1.5t40 2t26 2l4 -988q-16 4 -55 6t-93 2h-21.5t-21.5 -0.5t-28.5 -1.5t-41.5 -2z" />
    <glyph glyph-name="cent" unicode="&#xa2;" horiz-adv-x="1257" 
d="M129 496q0 109 36.5 202.5t102.5 166.5t158.5 121.5t203.5 67.5v67q0 57 -2.5 88.5t-6.5 46.5h269q-2 -29 -3 -60.5t-1 -63.5v-72q78 -6 145.5 -18.5t118.5 -32.5l-28 -272l-9 -9q-27 23 -69 41t-91 30.5t-101 19t-99 6.5q-92 0 -160 -23.5t-113 -63.5t-67 -93.5
t-22 -112.5q0 -66 25.5 -124t74.5 -100.5t119 -67.5t159 -25q63 0 124.5 13.5t113.5 39t91.5 60.5t59.5 79l7 -6l-14 -295q-45 -42 -113.5 -69.5t-144.5 -41.5v-66q0 -32 1 -63.5t3 -60.5h-269q4 15 6.5 46.5t2.5 88.5v37q-113 9 -206.5 52t-160.5 112t-104 159.5t-37 195.5
z" />
    <glyph glyph-name="sterling" unicode="&#xa3;" horiz-adv-x="1265" 
d="M140 228q12 7 31 13.5t41.5 12t48 10t50.5 7.5q20 45 36 101.5t16 109.5q0 26 -1 49.5t-3 44.5h-175v240h132q-5 32 -8.5 68t-3.5 84q0 91 32 163t90.5 121.5t140.5 76t183 26.5q33 0 73 -2t81.5 -7.5t81.5 -13.5t74 -20l-36 -250l-2 -5q-23 10 -59 20t-75.5 18.5t-78 14
t-66.5 5.5q-41 0 -74.5 -8.5t-58 -27.5t-38 -50.5t-13.5 -76.5t2 -77.5t6 -58.5h256q57 0 87 1t45 5l3 -251q-29 3 -60.5 4t-63.5 1h-220q2 -20 3 -43t1 -51q0 -54 -8.5 -110t-27.5 -111q26 -5 49.5 -8.5t40.5 -6.5q23 -4 45.5 -9t48.5 -10t58 -8.5t74 -3.5q47 0 79 3t55 10
t39.5 16.5t33.5 23.5l6 1l-8 -260q-42 -17 -80 -25.5t-92 -8.5q-18 0 -43.5 3t-57 7.5t-67 10.5t-72.5 12q-54 9 -86 15t-55 10t-42.5 5.5t-48.5 1.5q-10 0 -24.5 -1.5t-32.5 -5.5q-51 -26 -100 -38.5t-112 -20.5z" />
    <glyph glyph-name="currency" unicode="&#xa4;" horiz-adv-x="1414" 
d="M150 274q23 19 45.5 40t45.5 44l77 78q-59 91 -59 208q0 54 14 106t43 101l-75 75q-40 39 -64 60t-37 29l190 191q19 -23 40.5 -45.5t44.5 -45.5l92 -93q46 20 100 31.5t117 11.5q102 0 186 -35l89 88q23 23 44 45.5t40 45.5l191 -190q-14 -8 -38.5 -29t-63.5 -60
l-65 -65q60 -98 60 -211q0 -60 -17.5 -115t-50.5 -103l77 -76q23 -23 45.5 -44.5t45.5 -40.5l-191 -190q-8 13 -29 37t-60 64l-90 90q-90 -37 -197 -37q-99 0 -183 34l-88 -88q-39 -39 -60 -63.5t-29 -38.5zM509 654q0 -40 17 -73t45.5 -56.5t67 -36.5t80.5 -13
q41 0 78 12.5t65 35.5t44.5 57t16.5 76q0 33 -15 65.5t-42.5 57.5t-66 40.5t-86.5 15.5q-47 0 -84.5 -15t-64 -40t-41 -58t-14.5 -68z" />
    <glyph glyph-name="yen" unicode="&#xa5;" horiz-adv-x="1414" 
d="M276 566h351v94h-351v196h217l-168 238q-36 52 -64.5 89t-52.5 64t-45 46.5t-43 36.5h355q3 -14 15 -38t37 -62l221 -368l218 368q17 30 29.5 56.5t12.5 40.5v3h310q-11 -6 -48.5 -61t-107.5 -169l-159 -244h83q57 0 87 1t45 5v-207q-29 3 -59.5 4t-62.5 1h-214v-94h202
q57 0 87 1t45 5v-207q-29 3 -63.5 4t-66.5 1h-204v-212q0 -32 2 -75.5t10 -82.5h-280q6 17 9.5 57.5t3.5 124.5v188h-351v196z" />
    <glyph glyph-name="brokenbar" unicode="&#xa6;" horiz-adv-x="885" 
d="M311 727q1 16 2 27.5t1.5 23t0.5 25v33.5v415q0 33 -0.5 57.5t-1 45t-1.5 38.5t-2 38h265q-2 -40 -3.5 -84.5t-1.5 -98.5v-408q0 -51 1 -75t3 -37h-263zM315 328q0 33 -0.5 57.5t-1 45t-1.5 38.5t-2 38h265q-2 -40 -3.5 -84.5t-1.5 -98.5v-462q0 -51 1 -75t3 -37h-263
q1 16 2 33t1.5 38t0.5 47v61v399z" />
    <glyph glyph-name="section" unicode="&#xa7;" horiz-adv-x="1267" 
d="M197 -33q24 -40 70 -75t104.5 -61.5t125 -42t130.5 -15.5q46 0 88 8.5t74.5 24.5t51.5 37t19 47t-17 49t-54 43t-95.5 37t-141.5 32q-99 18 -182 50.5t-143 77.5t-93.5 100.5t-33.5 120.5q0 58 14.5 106t41.5 88t64.5 72.5t83.5 58.5q-70 57 -107.5 123t-37.5 135
q0 78 35.5 145.5t103.5 118t168 79.5t229 29q59 0 114.5 -8.5t103.5 -22t86.5 -31.5t63.5 -37l-38 -288l-5 -3q-24 32 -60.5 60.5t-84.5 50t-106.5 34t-126.5 12.5q-53 0 -95.5 -9.5t-72.5 -25.5t-46 -37.5t-16 -44.5q0 -26 19.5 -51t56.5 -46.5t89.5 -38.5t118.5 -28
q122 -20 211 -56t146.5 -82t85.5 -99.5t28 -108.5q0 -112 -52.5 -190.5t-142.5 -129.5q66 -51 100.5 -113t34.5 -134q0 -66 -21 -120t-57 -96.5t-85 -74t-105.5 -52.5t-118 -31t-122.5 -10q-54 0 -111 9t-110 25t-97.5 36.5t-74.5 44.5l-11 306zM344 465q0 -30 27 -54.5
t69.5 -44.5t94.5 -35t101.5 -26t91 -18t62.5 -10q31 21 56 38.5t42.5 35t27 36t9.5 42.5q0 32 -37 60t-95.5 51t-131 41t-142.5 31q-32 -8 -63.5 -22.5t-56.5 -34t-40 -42.5t-15 -48z" />
    <glyph glyph-name="dieresis" unicode="&#xa8;" horiz-adv-x="825" 
d="M500 1190q4 31 6 62.5t2 63.5q0 29 -2 62t-4 52h263q-2 -25 -3 -61.5t-1 -64.5q0 -32 0.5 -60t3.5 -54h-265zM70 1190q4 31 6 62.5t2 63.5q0 29 -2 62t-4 52h263q-2 -25 -3 -61.5t-1 -64.5q0 -32 0.5 -60t3.5 -54h-265z" />
    <glyph glyph-name="copyright" unicode="&#xa9;" horiz-adv-x="1949" 
d="M209 804q0 117 31 212.5t85 170t127.5 129t159.5 90t180 52.5t188 17q96 -2 190 -22t178.5 -58t156 -93.5t123.5 -128t81.5 -162t29.5 -194.5q0 -100 -27.5 -191t-78 -169t-120.5 -141.5t-155 -108t-182.5 -68.5t-202.5 -24q-165 0 -305 48.5t-242 138.5t-159.5 217
t-57.5 285zM444 794q0 -93 38 -176t107 -146t166 -100t214 -37q127 0 226.5 35t168 96.5t104.5 145t36 179.5q0 106 -37.5 195t-107 153.5t-168 100.5t-219.5 36q-125 0 -223.5 -36.5t-166 -101t-103 -153t-35.5 -191.5zM618 800q0 69 29 130t81.5 106.5t126.5 72t165 26.5
q25 0 55 -3.5t58 -9.5t52 -13t39 -14l-1 -227q-14 13 -38 24.5t-51.5 19.5t-57 12.5t-54.5 4.5q-91 0 -136 -33.5t-45 -87.5q0 -55 52.5 -88t140.5 -33q27 0 56.5 5t56.5 14t49.5 20.5t35.5 24.5l2 -1v-205q-19 -16 -46 -28t-58 -20t-65 -12t-68 -4q-87 0 -157.5 25
t-119.5 68t-75.5 101.5t-26.5 124.5z" />
    <glyph glyph-name="ordfeminine" unicode="&#xaa;" horiz-adv-x="1068" 
d="M517 577q-113 0 -195 32t-136 85t-80 121.5t-26 141.5q0 84 34 156.5t93.5 126.5t141 84.5t177.5 30.5q54 0 94 -13t76 -38v57h255v-463q0 -50 7.5 -85.5t19 -60t26 -38.5t28.5 -20l-2 -5l-198 -129q-27 9 -52.5 39t-45.5 69q-40 -42 -94 -66.5t-123 -24.5zM546 806
q43 0 82 16t68 34v227q-32 15 -73.5 28.5t-77.5 13.5q-54 0 -93.5 -13t-65.5 -34.5t-38.5 -50t-12.5 -58.5q0 -38 15 -68t43 -51t67 -32.5t86 -11.5z" />
    <glyph glyph-name="guillemotleft" unicode="&#xab;" horiz-adv-x="1180" 
d="M618 449q-17 30 -23 48.5t-5 30.5q0 8 4.5 24t18.5 43l171 320h255l-200 -388l206 -387h-255zM128 449q-17 30 -23 48.5t-5 30.5q0 8 4.5 24t18.5 43l171 320h255l-200 -388l206 -387h-255z" />
    <glyph glyph-name="logicalnot" unicode="&#xac;" horiz-adv-x="1414" 
d="M204 742q15 -4 45 -5t87 -1h739q57 0 87 1t45 5v-404q0 -32 1 -63.5t4 -60.5l-247 3q4 15 5 45t1 87v151h-646q-32 0 -63.5 -1t-60.5 -4z" />
    <glyph glyph-name="uni00AD" unicode="&#xad;" horiz-adv-x="1229" 
 />
    <glyph glyph-name="registered" unicode="&#xae;" horiz-adv-x="1730" 
d="M209 804q0 117 31 212.5t85 170t127.5 129t159.5 90t180 52.5t188 17q96 -2 190 -22t178.5 -58t156 -93.5t123.5 -128t81.5 -162t29.5 -194.5q0 -100 -27.5 -191t-78 -169t-120.5 -141.5t-155 -108t-182.5 -68.5t-202.5 -24q-165 0 -305 48.5t-242 138.5t-159.5 217
t-57.5 285zM444 794q0 -93 38 -176t107 -146t166 -100t214 -37q127 0 226.5 35t168 96.5t104.5 145t36 179.5q0 106 -37.5 195t-107 153.5t-168 100.5t-219.5 36q-125 0 -223.5 -36.5t-166 -101t-103 -153t-35.5 -191.5zM699 1105q48 13 110 20t126 7q94 0 163 -20
t113.5 -54t66 -79t21.5 -94q0 -48 -21.5 -91t-60.5 -76l54 -104q8 -15 19 -34.5t22.5 -37.5t20.5 -31.5t13 -16.5l-2 -2q-23 3 -46 3h-36t-59 -0.5t-61.5 -1.5t-43.5 -2l-74 148q-19 -3 -39 -3.5t-41 -0.5h-10t-10 2v-142h-225v610zM924 806q8 -2 15 -2h14q27 0 50.5 4
t41.5 13.5t28 27t10 44.5q0 33 -35 53t-104 20h-10t-10 -1v-159z" />
    <glyph glyph-name="macron" unicode="&#xaf;" horiz-adv-x="885" 
d="M105 1190q4 31 6 50t2 36q0 29 -2 57t-4 47h673q-2 -25 -3 -46.5t-1 -49.5v-27.5t0.5 -22t1.5 -21t2 -23.5h-675z" />
    <glyph glyph-name="degree" unicode="&#xb0;" horiz-adv-x="885" 
d="M433 732q-68 0 -125.5 23.5t-99 64.5t-65 97t-23.5 121q0 62 22 119.5t64 101.5t103.5 70t141.5 26q70 0 128 -26.5t99 -70t64 -99.5t23 -115q0 -66 -24 -123t-68 -99t-105 -66t-135 -24zM448 926q51 0 84.5 33.5t33.5 87.5q0 24 -8 45.5t-24 38t-38.5 26t-52.5 9.5
q-27 0 -49.5 -9.5t-38 -26t-24 -39t-8.5 -47.5q0 -51 32.5 -84.5t92.5 -33.5z" />
    <glyph glyph-name="plusminus" unicode="&#xb1;" horiz-adv-x="1239" 
d="M496 457q4 15 5 45t1 87v211h-213q-32 0 -63.5 -1t-60.5 -4l3 247q15 -4 45 -5t87 -1h202v192q0 57 -1 87t-5 45l247 3q-3 -29 -4 -60.5t-1 -63.5v-203h201q57 0 87 1t45 5l3 -247q-29 3 -60.5 4t-63.5 1h-212v-222q0 -32 1 -63.5t4 -60.5zM168 342q15 -4 45 -5t87 -1
h639q57 0 87 1t45 5l3 -247q-29 3 -60.5 4t-63.5 1h-661q-32 0 -63.5 -1t-60.5 -4z" />
    <glyph glyph-name="twosuperior" unicode="&#xb2;" horiz-adv-x="737" 
d="M161 749q93 148 138.5 240.5t45.5 128.5q0 29 -17 42t-40 13q-18 0 -39 -4t-42.5 -11t-41.5 -17.5t-35 -23.5l-7 -1l5 249q13 9 36.5 16.5t52 12.5t59.5 8t60 3q57 0 107.5 -14.5t89 -42t60.5 -67.5t22 -91q0 -60 -31 -150.5t-97 -207.5h144q36 0 56.5 3t34.5 14l5 -2
l-99 -244q-31 2 -70 3.5t-82 3t-88.5 2t-89.5 0.5q-35 0 -94 -1.5t-134 -6.5z" />
    <glyph glyph-name="threesuperior" unicode="&#xb3;" horiz-adv-x="846" 
d="M120 890l5 6q16 -16 44 -30t62.5 -25t73 -17.5t76.5 -6.5q35 0 57 4.5t35 12t17.5 15.5t4.5 16t-6.5 17.5t-20 17.5t-34.5 13.5t-50 5.5q-15 0 -31 -2t-29 -4t-21.5 -4t-9.5 -3l-3 5l5 165q14 7 40 11t51 4h8q20 7 32.5 19.5t12.5 31.5q0 28 -27.5 39t-67.5 11
q-43 0 -87 -11.5t-76 -30.5l-2 3l-7 210q18 12 44 22t57 16.5t64.5 10t68.5 3.5q61 0 112 -13.5t87.5 -38t56.5 -59t20 -76.5q0 -51 -22 -95.5t-68 -77.5q33 -16 61 -38t48.5 -48.5t32.5 -57t12 -63.5q0 -57 -26.5 -103.5t-74.5 -79t-113.5 -50t-143.5 -17.5q-169 0 -266 73
z" />
    <glyph glyph-name="acute" unicode="&#xb4;" horiz-adv-x="759" 
d="M269 1503q56 0 98 1t78 3.5t70 5.5t74 7l-1 -7l-262 -323h-226z" />
    <glyph glyph-name="mu" unicode="&#xb5;" horiz-adv-x="1244" 
d="M173 820q0 47 -1 81.5t-2.5 60.5t-4 46.5t-5.5 40.5q26 -3 63.5 -3.5t88.5 -0.5q17 0 43.5 0.5t62.5 2.5v-746q37 -48 85.5 -65t111.5 -17q42 0 78 13.5t71 47.5v764h245v-671q0 -78 27.5 -116t78.5 -38q29 0 48.5 8.5t32.5 23.5h8l-57 -248q-14 -8 -44 -13.5t-62 -5.5
q-72 0 -126 27.5t-89 72.5q-66 -52 -130 -76t-133 -24q-46 0 -88 11t-80 30q3 -111 25 -188.5t67 -108.5v-5l-201 -131q-27 20 -48 49.5t-35.5 73t-22 102.5t-7.5 137v865z" />
    <glyph glyph-name="mu" unicode="&#x3bc;" horiz-adv-x="1244" 
d="M173 820q0 47 -1 81.5t-2.5 60.5t-4 46.5t-5.5 40.5q26 -3 63.5 -3.5t88.5 -0.5q17 0 43.5 0.5t62.5 2.5v-746q37 -48 85.5 -65t111.5 -17q42 0 78 13.5t71 47.5v764h245v-671q0 -78 27.5 -116t78.5 -38q29 0 48.5 8.5t32.5 23.5h8l-57 -248q-14 -8 -44 -13.5t-62 -5.5
q-72 0 -126 27.5t-89 72.5q-66 -52 -130 -76t-133 -24q-46 0 -88 11t-80 30q3 -111 25 -188.5t67 -108.5v-5l-201 -131q-27 20 -48 49.5t-35.5 73t-22 102.5t-7.5 137v865z" />
    <glyph glyph-name="paragraph" unicode="&#xb6;" horiz-adv-x="1414" 
d="M217 267l7 2q27 -15 57.5 -22.5t61.5 -7.5q22 0 39 6t28.5 21t17 40t5.5 63v194q-90 3 -156 36.5t-109.5 87t-64.5 120.5t-21 137q0 90 32 161.5t96 121.5t158 76.5t219 26.5h569q-5 -51 -6.5 -110.5t-1.5 -128.5v-979q0 -51 1 -75t3 -37h-249v1092q-48 3 -98 3h-52
t-65 -1v-627q0 -134 -22 -224t-63 -144t-100 -76.5t-132 -22.5q-91 0 -154 28v239z" />
    <glyph glyph-name="periodcentered" unicode="&#xb7;" horiz-adv-x="530" 
d="M119 600q5 34 7 69t2 70q0 16 -0.5 33.5t-1.5 34.5t-2.5 32l-2.5 25h290q-2 -28 -3.5 -67.5t-1.5 -70.5q0 -35 0.5 -66t4.5 -60h-292z" />
    <glyph glyph-name="cedilla" unicode="&#xb8;" horiz-adv-x="717" 
d="M457 40q4 -28 7 -51t5 -44t3 -41t1 -42q0 -97 -22.5 -152t-51.5 -72q-11 -7 -26 -14.5t-39.5 -16.5t-60.5 -18.5t-89 -20.5l-6 6q19 27 32.5 78t21.5 111.5t12 123t4 113.5z" />
    <glyph glyph-name="onesuperior" unicode="&#xb9;" horiz-adv-x="545" 
d="M150 1390h245v-790h-245v790z" />
    <glyph glyph-name="ordmasculine" unicode="&#xba;" horiz-adv-x="1032" 
d="M512 577q-110 0 -191.5 34t-135 88t-79.5 122t-26 136q0 84 33 156.5t92 126.5t139.5 84.5t176.5 30.5q91 0 170 -28t137 -79t91 -121.5t33 -154.5q0 -81 -34 -153t-93 -125.5t-139.5 -85t-173.5 -31.5zM525 803q38 0 71.5 11.5t58 32t39 49t14.5 63.5q0 37 -15.5 68
t-42 52.5t-62.5 33.5t-78 12q-48 0 -83.5 -14.5t-59.5 -37.5t-35.5 -52t-11.5 -58q0 -36 15.5 -65.5t42.5 -50.5t64.5 -32.5t82.5 -11.5z" />
    <glyph glyph-name="guillemotright" unicode="&#xbb;" horiz-adv-x="1180" 
d="M780 527l-199 388h255l171 -320q14 -27 18.5 -43t4.5 -24q0 -12 -5.5 -30.5t-22.5 -48.5l-172 -309h-255zM290 527l-199 388h255l171 -320q14 -27 18.5 -43t4.5 -24q0 -12 -5.5 -30.5t-22.5 -48.5l-172 -309h-255z" />
    <glyph glyph-name="onequarter" unicode="&#xbc;" horiz-adv-x="1949" 
d="M206 1390h245v-790h-245v790zM1054 1330h245l-790 -1330h-245zM1231 770h340v-407h21q45 0 81 3t67 11l3 -3l-62 -231h-110v-143h-245v143h-386l-20 44zM1326 363v237l-96 -237h96z" />
    <glyph glyph-name="onehalf" unicode="&#xbd;" horiz-adv-x="1949" 
d="M230 1390h245v-790h-245v790zM1078 1330h245l-790 -1330h-245zM1153 137q93 148 138.5 240.5t45.5 128.5q0 29 -17 42t-40 13q-18 0 -39 -4t-42.5 -11t-41.5 -17.5t-35 -23.5l-7 -1l5 249q13 9 36.5 16.5t52 12.5t59.5 8t60 3q57 0 107.5 -14.5t89 -42t60.5 -67.5t22 -91
q0 -60 -31 -150.5t-97 -207.5h144q36 0 56.5 3t34.5 14l5 -2l-99 -244q-31 2 -70 3.5t-82 3t-88.5 2t-89.5 0.5q-35 0 -94 -1.5t-134 -6.5z" />
    <glyph glyph-name="threequarters" unicode="&#xbe;" horiz-adv-x="2124" 
d="M192 890l5 6q16 -16 44 -30t62.5 -25t73 -17.5t76.5 -6.5q35 0 57 4.5t35 12t17.5 15.5t4.5 16t-6.5 17.5t-20 17.5t-34.5 13.5t-50 5.5q-15 0 -31 -2t-29 -4t-21.5 -4t-9.5 -3l-3 5l5 165q14 7 40 11t51 4h8q20 7 32.5 19.5t12.5 31.5q0 28 -27.5 39t-67.5 11
q-43 0 -87 -11.5t-76 -30.5l-2 3l-7 210q18 12 44 22t57 16.5t64.5 10t68.5 3.5q61 0 112 -13.5t87.5 -38t56.5 -59t20 -76.5q0 -51 -22 -95.5t-68 -77.5q33 -16 61 -38t48.5 -48.5t32.5 -57t12 -63.5q0 -57 -26.5 -103.5t-74.5 -79t-113.5 -50t-143.5 -17.5q-169 0 -266 73
zM1270 1330h245l-790 -1330h-245zM1429 770h340v-407h21q45 0 81 3t67 11l3 -3l-62 -231h-110v-143h-245v143h-386l-20 44zM1524 363v237l-96 -237h96z" />
    <glyph glyph-name="questiondown" unicode="&#xbf;" horiz-adv-x="956" 
d="M323 1090q2 19 4 52t2 62q0 32 -2 63.5t-6 62.5h265q-3 -26 -3.5 -54t-0.5 -60q0 -28 1 -64.5t3 -61.5h-263zM80 89q13 45 21.5 75.5t14 51t8 33.5t3.5 22q2 16 3 25t1 19v13l7 -2q21 -40 54 -68.5t71 -47t77 -27t71 -8.5q45 0 84.5 10.5t69.5 30.5t47 48.5t17 64.5
q0 22 -5.5 42t-20.5 42t-41.5 48.5t-68.5 61.5q-62 52 -100.5 94t-60.5 77t-29.5 63t-7.5 52q0 63 31 108.5t94 69.5q19 -9 43 -22t49.5 -28.5t50.5 -31.5t45 -31q-22 -4 -39.5 -21.5t-17.5 -45.5q0 -12 4 -26.5t19 -35.5t45 -52t82 -76q54 -48 90 -88.5t57 -77t29.5 -70.5
t8.5 -68q0 -69 -31.5 -134t-89 -114.5t-138.5 -79.5t-180 -30q-121 0 -209 34t-158 100z" />
    <glyph glyph-name="Agrave" unicode="&#xc0;" horiz-adv-x="1259" 
d="M261 1768l-1 7q40 -4 74 -7t70 -5.5t78 -3.5t98 -1l169 -313h-226zM455 1219q17 48 23 70.5t6 33.5q0 6 -1 8l1 2q43 -2 76 -2.5t62 -0.5t65.5 0.5t78.5 1.5l1 -2q-2 -6 -2 -8q0 -10 6 -32.5t24 -71.5l444 -1221q-20 1 -47 1.5t-52 1t-44.5 0.5h-23.5h-132l-94 288h-452
l-94 -296q-54 5 -107.5 6.5t-93.5 1.5h-79zM768 528l-151 465l-147 -465h298z" />
    <glyph glyph-name="Aacute" unicode="&#xc1;" horiz-adv-x="1259" 
d="M679 1758q56 0 98 1t78 3.5t70 5.5t74 7l-1 -7l-262 -323h-226zM455 1219q17 48 23 70.5t6 33.5q0 6 -1 8l1 2q43 -2 76 -2.5t62 -0.5t65.5 0.5t78.5 1.5l1 -2q-2 -6 -2 -8q0 -10 6 -32.5t24 -71.5l444 -1221q-20 1 -47 1.5t-52 1t-44.5 0.5h-23.5h-132l-94 288h-452
l-94 -296q-54 5 -107.5 6.5t-93.5 1.5h-79zM768 528l-151 465l-147 -465h298z" />
    <glyph glyph-name="Acircumflex" unicode="&#xc2;" horiz-adv-x="1259" 
d="M254 1445l242 331q7 -1 23 -1.5t34 -1t34.5 -0.5h25.5q8 0 25.5 0.5t37 1t36 1t22.5 0.5l255 -331l-4 -3q-15 0 -43 0.5t-63 1t-74 1t-75 0.5l-113 177l-97 -177q-93 0 -162 -0.5t-101 -2.5zM455 1219q17 48 23 70.5t6 33.5q0 6 -1 8l1 2q43 -2 76 -2.5t62 -0.5t65.5 0.5
t78.5 1.5l1 -2q-2 -6 -2 -8q0 -10 6 -32.5t24 -71.5l444 -1221q-20 1 -47 1.5t-52 1t-44.5 0.5h-23.5h-132l-94 288h-452l-94 -296q-54 5 -107.5 6.5t-93.5 1.5h-79zM768 528l-151 465l-147 -465h298z" />
    <glyph glyph-name="Atilde" unicode="&#xc3;" horiz-adv-x="1259" 
d="M302 1471l-4 199q27 32 71.5 56t113.5 24q41 0 71 -8t54.5 -20t45.5 -26.5t44.5 -26.5t52 -20t66.5 -8q57 0 96.5 19.5t59.5 64.5l2 -2l-10 -216q-17 -30 -61 -49.5t-101 -19.5q-39 0 -68.5 8t-54.5 20t-46.5 25.5t-45.5 25.5t-51.5 20t-63.5 8q-59 0 -97.5 -21.5
t-69.5 -53.5zM455 1219q17 48 23 70.5t6 33.5q0 6 -1 8l1 2q43 -2 76 -2.5t62 -0.5t65.5 0.5t78.5 1.5l1 -2q-2 -6 -2 -8q0 -10 6 -32.5t24 -71.5l444 -1221q-20 1 -47 1.5t-52 1t-44.5 0.5h-23.5h-132l-94 288h-452l-94 -296q-54 5 -107.5 6.5t-93.5 1.5h-79zM768 528
l-151 465l-147 -465h298z" />
    <glyph glyph-name="Adieresis" unicode="&#xc4;" horiz-adv-x="1259" 
d="M724 1475q4 31 6 62.5t2 63.5q0 29 -2 62t-4 52h263q-2 -25 -3 -61.5t-1 -64.5q0 -32 0.5 -60t3.5 -54h-265zM251 1475q4 31 6 62.5t2 63.5q0 29 -2 62t-4 52h263q-2 -25 -3 -61.5t-1 -64.5q0 -32 0.5 -60t3.5 -54h-265zM455 1219q17 48 23 70.5t6 33.5q0 6 -1 8l1 2
q43 -2 76 -2.5t62 -0.5t65.5 0.5t78.5 1.5l1 -2q-2 -6 -2 -8q0 -10 6 -32.5t24 -71.5l444 -1221q-20 1 -47 1.5t-52 1t-44.5 0.5h-23.5h-132l-94 288h-452l-94 -296q-54 5 -107.5 6.5t-93.5 1.5h-79zM768 528l-151 465l-147 -465h298z" />
    <glyph glyph-name="Aring" unicode="&#xc5;" horiz-adv-x="1259" 
d="M455 1219q17 48 23 70.5t6 33.5q0 6 -1 8l1 2q1 0 2 -0.5t3 -0.5q-63 28 -98 80.5t-35 127.5q0 52 19 96.5t55.5 77t90 50.5t122.5 18q61 0 111 -18.5t85.5 -50.5t55 -75.5t19.5 -92.5q0 -78 -39.5 -132.5t-108.5 -82.5h1q-2 -6 -2 -8q0 -10 6 -32.5t24 -71.5l444 -1221
q-20 1 -47 1.5t-52 1t-44.5 0.5h-23.5h-132l-94 288h-452l-94 -296q-54 5 -107.5 6.5t-93.5 1.5h-79zM636 1447q23 0 44 7.5t37 21t25.5 31.5t9.5 39q0 18 -7.5 35.5t-22.5 32t-37.5 23.5t-52.5 9q-31 0 -53 -9t-36.5 -23.5t-21 -32.5t-6.5 -36q0 -39 30 -68.5t91 -29.5z
M768 528l-151 465l-147 -465h298z" />
    <glyph glyph-name="AE" unicode="&#xc6;" horiz-adv-x="1707" 
d="M702 1219q17 29 33.5 55t16.5 49l-2 8l1 2q43 -2 76 -2.5t62 -0.5h209h118.5t119.5 1t126.5 2.5t140.5 4.5q-3 -24 -5 -58t-3.5 -68t-2 -63.5t-0.5 -45.5q0 -14 2 -24l-2 -3q-14 4 -27 7t-29.5 4.5t-38.5 2.5t-53 1h-331v-255h262q57 0 87 1t45 5l3 -247q-29 3 -60.5 4
t-63.5 1h-273v-360h424q39 0 57.5 3.5t28.5 8.5l4 -1v-251h-769v288h-405l-159 -296q-27 2 -56.5 3.5t-58 2.5t-54.5 1.5t-46 0.5h-79zM862 528v529l-280 -529h280z" />
    <glyph glyph-name="Ccedilla" unicode="&#xc7;" horiz-adv-x="1304" 
d="M100 649q0 160 58.5 290.5t159.5 222.5t237 142.5t292 50.5q107 0 185 -17t141 -48v-308l-2 -2q-19 29 -53 54t-77.5 43t-94.5 28t-105 10q-109 0 -198.5 -33.5t-153.5 -93.5t-99 -142t-35 -179q0 -127 42 -213.5t107.5 -139.5t144.5 -76t153 -23q55 0 111.5 12.5
t108 36.5t95.5 58t74 77l3 -2v-285q-60 -49 -136.5 -82.5t-170.5 -46.5q5 -33 6.5 -61.5t1.5 -59.5q0 -97 -22.5 -152t-51.5 -72q-11 -7 -26 -14.5t-39.5 -16.5t-60.5 -18.5t-89 -20.5l-6 6q18 26 31 74t22 105t13 117t4 111q-134 16 -239.5 71.5t-179 143t-112.5 203
t-39 250.5z" />
    <glyph glyph-name="Egrave" unicode="&#xc8;" horiz-adv-x="1049" 
d="M229 1768l-1 7q40 -4 74 -7t70 -5.5t78 -3.5t98 -1l169 -313h-226zM180 1337q27 -2 59.5 -3.5t67 -2l69 -1t66.5 -0.5q96 0 219 1.5t264 6.5q-3 -24 -5 -58t-3.5 -68t-2 -63.5t-0.5 -45.5q0 -14 2 -24l-2 -3q-14 4 -27 7t-29.5 4.5t-38.5 2.5t-53 1h-331v-255h292
q57 0 87 1t45 5l3 -247q-29 3 -60.5 4t-63.5 1h-303v-360h424q39 0 57.5 3.5t28.5 8.5l4 -1v-251h-769v1337z" />
    <glyph glyph-name="Eacute" unicode="&#xc9;" horiz-adv-x="1049" 
d="M594 1758q56 0 98 1t78 3.5t70 5.5t74 7l-1 -7l-262 -323h-226zM180 1337q27 -2 59.5 -3.5t67 -2l69 -1t66.5 -0.5q96 0 219 1.5t264 6.5q-3 -24 -5 -58t-3.5 -68t-2 -63.5t-0.5 -45.5q0 -14 2 -24l-2 -3q-14 4 -27 7t-29.5 4.5t-38.5 2.5t-53 1h-331v-255h292q57 0 87 1
t45 5l3 -247q-29 3 -60.5 4t-63.5 1h-303v-360h424q39 0 57.5 3.5t28.5 8.5l4 -1v-251h-769v1337z" />
    <glyph glyph-name="Ecircumflex" unicode="&#xca;" horiz-adv-x="1049" 
d="M189 1443l242 331q7 -1 23 -1.5t34 -1t34.5 -0.5h25.5q8 0 25.5 0.5t37 1t36 1t22.5 0.5l255 -331l-4 -3q-15 0 -43 0.5t-63 1t-74 1t-75 0.5l-113 177l-97 -177q-93 0 -162 -0.5t-101 -2.5zM180 1337q27 -2 59.5 -3.5t67 -2l69 -1t66.5 -0.5q96 0 219 1.5t264 6.5
q-3 -24 -5 -58t-3.5 -68t-2 -63.5t-0.5 -45.5q0 -14 2 -24l-2 -3q-14 4 -27 7t-29.5 4.5t-38.5 2.5t-53 1h-331v-255h292q57 0 87 1t45 5l3 -247q-29 3 -60.5 4t-63.5 1h-303v-360h424q39 0 57.5 3.5t28.5 8.5l4 -1v-251h-769v1337z" />
    <glyph glyph-name="Edieresis" unicode="&#xcb;" horiz-adv-x="1049" 
d="M632 1475q4 31 6 62.5t2 63.5q0 29 -2 62t-4 52h263q-2 -25 -3 -61.5t-1 -64.5q0 -32 0.5 -60t3.5 -54h-265zM202 1475q4 31 6 62.5t2 63.5q0 29 -2 62t-4 52h263q-2 -25 -3 -61.5t-1 -64.5q0 -32 0.5 -60t3.5 -54h-265zM180 1337q27 -2 59.5 -3.5t67 -2l69 -1t66.5 -0.5
q96 0 219 1.5t264 6.5q-3 -24 -5 -58t-3.5 -68t-2 -63.5t-0.5 -45.5q0 -14 2 -24l-2 -3q-14 4 -27 7t-29.5 4.5t-38.5 2.5t-53 1h-331v-255h292q57 0 87 1t45 5l3 -247q-29 3 -60.5 4t-63.5 1h-303v-360h424q39 0 57.5 3.5t28.5 8.5l4 -1v-251h-769v1337z" />
    <glyph glyph-name="Igrave" unicode="&#xcc;" horiz-adv-x="615" 
d="M-51 1768l-1 7q40 -4 74 -7t70 -5.5t78 -3.5t98 -1l169 -313h-226zM180 1334q25 -1 41.5 -2t31 -1.5t30 -0.5h36.5q33 0 66.5 2t49.5 6v-1344q-9 1 -26 2t-40 2t-51 1.5t-58 0.5h-80v1334z" />
    <glyph glyph-name="Iacute" unicode="&#xcd;" horiz-adv-x="615" 
d="M317 1758q56 0 98 1t78 3.5t70 5.5t74 7l-1 -7l-262 -323h-226zM180 1334q25 -1 41.5 -2t31 -1.5t30 -0.5h36.5q33 0 66.5 2t49.5 6v-1344q-9 1 -26 2t-40 2t-51 1.5t-58 0.5h-80v1334z" />
    <glyph glyph-name="Icircumflex" unicode="&#xce;" horiz-adv-x="615" 
d="M-57 1443l242 331q7 -1 23 -1.5t34 -1t34.5 -0.5h25.5q8 0 25.5 0.5t37 1t36 1t22.5 0.5l255 -331l-4 -3q-15 0 -43 0.5t-63 1t-74 1t-75 0.5l-113 177l-97 -177q-93 0 -162 -0.5t-101 -2.5zM180 1334q25 -1 41.5 -2t31 -1.5t30 -0.5h36.5q33 0 66.5 2t49.5 6v-1344
q-9 1 -26 2t-40 2t-51 1.5t-58 0.5h-80v1334z" />
    <glyph glyph-name="Idieresis" unicode="&#xcf;" horiz-adv-x="615" 
d="M395 1475q4 31 6 62.5t2 63.5q0 29 -2 62t-4 52h263q-2 -25 -3 -61.5t-1 -64.5q0 -32 0.5 -60t3.5 -54h-265zM-35 1475q4 31 6 62.5t2 63.5q0 29 -2 62t-4 52h263q-2 -25 -3 -61.5t-1 -64.5q0 -32 0.5 -60t3.5 -54h-265zM180 1334q25 -1 41.5 -2t31 -1.5t30 -0.5h36.5
q33 0 66.5 2t49.5 6v-1344q-9 1 -26 2t-40 2t-51 1.5t-58 0.5h-80v1334z" />
    <glyph glyph-name="Eth" unicode="&#xd0;" horiz-adv-x="1329" 
d="M209 548h-139v236h139v555q67 8 134 12t130 4q186 0 329 -50t240 -140t147 -214t50 -272q0 -172 -58.5 -303.5t-160 -220.5t-238 -134.5t-291.5 -45.5q-31 0 -66.5 2t-72.5 5t-73.5 8t-69.5 11v547zM464 221q45 -6 93 -6q86 0 163.5 26t135.5 78t92 129.5t34 179.5
q0 112 -33.5 202t-96.5 153.5t-153 97.5t-203 34h-16t-16 -1v-330h265v-236h-265v-327z" />
    <glyph glyph-name="Ntilde" unicode="&#xd1;" horiz-adv-x="1276" 
d="M302 1471l-4 199q27 32 71.5 56t113.5 24q41 0 71 -8t54.5 -20t45.5 -26.5t44.5 -26.5t52 -20t66.5 -8q57 0 96.5 19.5t59.5 64.5l2 -2l-10 -216q-17 -30 -61 -49.5t-101 -19.5q-39 0 -68.5 8t-54.5 20t-46.5 25.5t-45.5 25.5t-51.5 20t-63.5 8q-59 0 -97.5 -21.5
t-69.5 -53.5zM160 0q3 17 4.5 33.5t1.5 40.5v1256h220q52 -98 105 -192t110 -190.5t120 -200t135 -219.5v734q0 55 -10 68h270q-2 -16 -3.5 -37.5t-1.5 -50.5v-1242h-218q-55 85 -99.5 153.5t-83 127.5t-73 113.5t-68.5 110.5t-70 118.5t-78 138.5v-762h-261z" />
    <glyph glyph-name="Ograve" unicode="&#xd2;" horiz-adv-x="1565" 
d="M464 1768l-1 7q40 -4 74 -7t70 -5.5t78 -3.5t98 -1l169 -313h-226zM100 637q0 143 49.5 273t141 229t220.5 157.5t289 58.5q131 0 251.5 -44t212.5 -130t146.5 -212t54.5 -290q0 -105 -25.5 -198t-72 -171t-110.5 -140.5t-141 -105.5t-164 -66t-179 -23q-141 0 -263.5 48
t-213.5 135t-143.5 209t-52.5 270zM358 648q0 -93 34.5 -172.5t93.5 -137.5t139 -90.5t171 -32.5q86 0 161.5 30.5t131 88t87.5 139.5t32 184q0 90 -29 172t-84.5 144.5t-135 99.5t-179.5 37q-98 0 -176 -37.5t-133 -101t-84 -147.5t-29 -176z" />
    <glyph glyph-name="Oacute" unicode="&#xd3;" horiz-adv-x="1565" 
d="M772 1758q56 0 98 1t78 3.5t70 5.5t74 7l-1 -7l-262 -323h-226zM100 637q0 143 49.5 273t141 229t220.5 157.5t289 58.5q131 0 251.5 -44t212.5 -130t146.5 -212t54.5 -290q0 -105 -25.5 -198t-72 -171t-110.5 -140.5t-141 -105.5t-164 -66t-179 -23q-141 0 -263.5 48
t-213.5 135t-143.5 209t-52.5 270zM358 648q0 -93 34.5 -172.5t93.5 -137.5t139 -90.5t171 -32.5q86 0 161.5 30.5t131 88t87.5 139.5t32 184q0 90 -29 172t-84.5 144.5t-135 99.5t-179.5 37q-98 0 -176 -37.5t-133 -101t-84 -147.5t-29 -176z" />
    <glyph glyph-name="Ocircumflex" unicode="&#xd4;" horiz-adv-x="1565" 
d="M377 1443l272 331q7 -1 23 -1.5t34 -1t34.5 -0.5h25.5q8 0 25.5 0.5t37 1t36 1t22.5 0.5l285 -331l-4 -3q-15 0 -43 0.5t-63 1t-74 1t-75 0.5l-142 183l-128 -183q-93 0 -162 -0.5t-101 -2.5zM100 637q0 143 49.5 273t141 229t220.5 157.5t289 58.5q131 0 251.5 -44
t212.5 -130t146.5 -212t54.5 -290q0 -105 -25.5 -198t-72 -171t-110.5 -140.5t-141 -105.5t-164 -66t-179 -23q-141 0 -263.5 48t-213.5 135t-143.5 209t-52.5 270zM358 648q0 -93 34.5 -172.5t93.5 -137.5t139 -90.5t171 -32.5q86 0 161.5 30.5t131 88t87.5 139.5t32 184
q0 90 -29 172t-84.5 144.5t-135 99.5t-179.5 37q-98 0 -176 -37.5t-133 -101t-84 -147.5t-29 -176z" />
    <glyph glyph-name="Otilde" unicode="&#xd5;" horiz-adv-x="1565" 
d="M414 1660q29 32 78 56t124 24q44 0 77 -8t59.5 -20t49.5 -26.5t49 -26.5t56.5 -20t72.5 -8q60 0 103.5 19.5t66.5 64.5l2 -2l-11 -216q-19 -30 -66.5 -49.5t-110.5 -19.5q-43 0 -75 8t-59 20t-50.5 25.5t-49.5 25.5t-56 20t-69 8q-64 0 -106.5 -21.5t-75.5 -53.5l-5 1z
M100 637q0 143 49.5 273t141 229t220.5 157.5t289 58.5q131 0 251.5 -44t212.5 -130t146.5 -212t54.5 -290q0 -105 -25.5 -198t-72 -171t-110.5 -140.5t-141 -105.5t-164 -66t-179 -23q-141 0 -263.5 48t-213.5 135t-143.5 209t-52.5 270zM358 648q0 -93 34.5 -172.5
t93.5 -137.5t139 -90.5t171 -32.5q86 0 161.5 30.5t131 88t87.5 139.5t32 184q0 90 -29 172t-84.5 144.5t-135 99.5t-179.5 37q-98 0 -176 -37.5t-133 -101t-84 -147.5t-29 -176z" />
    <glyph glyph-name="Odieresis" unicode="&#xd6;" horiz-adv-x="1565" 
d="M910 1475q4 31 6 62.5t2 63.5q0 29 -2 62t-4 52h263q-2 -25 -3 -61.5t-1 -64.5q0 -32 0.5 -60t3.5 -54h-265zM400 1475q4 31 6 62.5t2 63.5q0 29 -2 62t-4 52h263q-2 -25 -3 -61.5t-1 -64.5q0 -32 0.5 -60t3.5 -54h-265zM100 637q0 143 49.5 273t141 229t220.5 157.5
t289 58.5q131 0 251.5 -44t212.5 -130t146.5 -212t54.5 -290q0 -105 -25.5 -198t-72 -171t-110.5 -140.5t-141 -105.5t-164 -66t-179 -23q-141 0 -263.5 48t-213.5 135t-143.5 209t-52.5 270zM358 648q0 -93 34.5 -172.5t93.5 -137.5t139 -90.5t171 -32.5q86 0 161.5 30.5
t131 88t87.5 139.5t32 184q0 90 -29 172t-84.5 144.5t-135 99.5t-179.5 37q-98 0 -176 -37.5t-133 -101t-84 -147.5t-29 -176z" />
    <glyph glyph-name="multiply" unicode="&#xd7;" horiz-adv-x="1239" 
d="M208 384q14 8 35.5 28.5t61.5 60.5l142 142l-135 136q-39 40 -61 60.5t-36 28.5l172 177q19 -23 40.5 -45.5t44.5 -45.5l143 -143l142 142q39 39 60 60.5t29 36.5l177 -172q-23 -19 -45.5 -40.5t-45.5 -44.5l-150 -150l157 -156q23 -23 45.5 -44.5t45.5 -40.5l-177 -172
q-8 14 -29 35.5t-60 61.5l-149 149l-150 -150q-23 -23 -44.5 -45.5t-40.5 -45.5z" />
    <glyph glyph-name="Oslash" unicode="&#xd8;" horiz-adv-x="1565" 
d="M387 86q-65 43 -118 100.5t-90.5 127t-58 151t-20.5 172.5q0 143 49.5 273t141 229t220.5 157.5t289 58.5q114 0 224 -35l57 110h196l-96 -185q63 -41 115.5 -97.5t90 -127.5t58 -156.5t20.5 -184.5q0 -105 -25.5 -198t-72 -171t-110.5 -140.5t-141 -105.5t-164 -66
t-179 -23q-119 0 -229 35l-57 -110h-196zM906 1092q-59 18 -126 18q-98 0 -176 -37.5t-133 -101t-84 -147.5t-29 -176q0 -103 40 -186t109 -143zM660 235q66 -20 136 -20q86 0 161.5 30.5t131 88t87.5 139.5t32 184q0 103 -38.5 195t-110.5 156z" />
    <glyph glyph-name="Ugrave" unicode="&#xd9;" horiz-adv-x="1321" 
d="M350 1768l-1 7q40 -4 74 -7t70 -5.5t78 -3.5t98 -1l169 -313h-226zM180 1335q51 -3 77 -4t40 -1q33 0 54.5 0.5t36.5 1.5t26.5 2.5t23.5 3.5v-863q0 -66 18 -115t50 -81t75 -48t94 -16q45 0 83.5 16t66 52.5t43 95.5t15.5 146v810q24 -2 42.5 -3t35 -1.5t33 -0.5h37.5
q38 0 62.5 2t47.5 6v-827q0 -127 -34 -226.5t-95 -168.5t-146.5 -105t-187.5 -36q-108 0 -199.5 29.5t-157.5 92t-103.5 159.5t-37.5 232v847z" />
    <glyph glyph-name="Uacute" unicode="&#xda;" horiz-adv-x="1321" 
d="M683 1758q56 0 98 1t78 3.5t70 5.5t74 7l-1 -7l-262 -323h-226zM180 1335q51 -3 77 -4t40 -1q33 0 54.5 0.5t36.5 1.5t26.5 2.5t23.5 3.5v-863q0 -66 18 -115t50 -81t75 -48t94 -16q45 0 83.5 16t66 52.5t43 95.5t15.5 146v810q24 -2 42.5 -3t35 -1.5t33 -0.5h37.5
q38 0 62.5 2t47.5 6v-827q0 -127 -34 -226.5t-95 -168.5t-146.5 -105t-187.5 -36q-108 0 -199.5 29.5t-157.5 92t-103.5 159.5t-37.5 232v847z" />
    <glyph glyph-name="Ucircumflex" unicode="&#xdb;" horiz-adv-x="1321" 
d="M295 1443l242 331q7 -1 23 -1.5t34 -1t34.5 -0.5h25.5q8 0 25.5 0.5t37 1t36 1t22.5 0.5l255 -331l-4 -3q-15 0 -43 0.5t-63 1t-74 1t-75 0.5l-113 177l-97 -177q-93 0 -162 -0.5t-101 -2.5zM180 1335q51 -3 77 -4t40 -1q33 0 54.5 0.5t36.5 1.5t26.5 2.5t23.5 3.5v-863
q0 -66 18 -115t50 -81t75 -48t94 -16q45 0 83.5 16t66 52.5t43 95.5t15.5 146v810q24 -2 42.5 -3t35 -1.5t33 -0.5h37.5q38 0 62.5 2t47.5 6v-827q0 -127 -34 -226.5t-95 -168.5t-146.5 -105t-187.5 -36q-108 0 -199.5 29.5t-157.5 92t-103.5 159.5t-37.5 232v847z" />
    <glyph glyph-name="Udieresis" unicode="&#xdc;" horiz-adv-x="1321" 
d="M768 1475q4 31 6 62.5t2 63.5q0 29 -2 62t-4 52h263q-2 -25 -3 -61.5t-1 -64.5q0 -32 0.5 -60t3.5 -54h-265zM298 1475q4 31 6 62.5t2 63.5q0 29 -2 62t-4 52h263q-2 -25 -3 -61.5t-1 -64.5q0 -32 0.5 -60t3.5 -54h-265zM180 1335q51 -3 77 -4t40 -1q33 0 54.5 0.5
t36.5 1.5t26.5 2.5t23.5 3.5v-863q0 -66 18 -115t50 -81t75 -48t94 -16q45 0 83.5 16t66 52.5t43 95.5t15.5 146v810q24 -2 42.5 -3t35 -1.5t33 -0.5h37.5q38 0 62.5 2t47.5 6v-827q0 -127 -34 -226.5t-95 -168.5t-146.5 -105t-187.5 -36q-108 0 -199.5 29.5t-157.5 92
t-103.5 159.5t-37.5 232v847z" />
    <glyph glyph-name="Yacute" unicode="&#xdd;" horiz-adv-x="1174" 
d="M642 1758q56 0 98 1t78 3.5t70 5.5t74 7l-1 -7l-262 -323h-226zM494 0q6 17 9.5 57.5t3.5 124.5v361q-30 59 -66.5 127.5t-76.5 140.5t-82 144.5t-82 138.5q-56 92 -103 147t-91 89h355q11 -20 30 -55t42.5 -80t50.5 -95.5t53.5 -100.5t51 -96.5t43.5 -82.5
q15 39 34 85.5t40 95t43 97t41.5 92t36 80t27.5 60.5h320q-15 -12 -36 -38t-44 -60t-45.5 -73t-39.5 -78q-31 -64 -65.5 -135.5t-68 -144t-63 -142t-50.5 -128.5v-373q0 -32 2 -75.5t10 -82.5h-280z" />
    <glyph glyph-name="Thorn" unicode="&#xde;" horiz-adv-x="1140" 
d="M160 1330h255v-196q153 0 270 -34.5t195.5 -97t119 -149.5t40.5 -191q0 -114 -39 -202t-113 -147.5t-181.5 -90.5t-244.5 -31q-23 0 -47 3v-194h-255v1330zM415 422q8 -2 16 -2h16q155 0 241 54t86 167q0 55 -20.5 103t-60 83t-97 55.5t-131.5 20.5q-14 0 -26 -0.5
t-24 -1.5v-479z" />
    <glyph glyph-name="germandbls" unicode="&#xdf;" horiz-adv-x="1214" 
d="M70 -271q24 16 38 50t20.5 96t8.5 158.5t2 237.5v500q0 338 116.5 506t338.5 168q72 0 133.5 -21.5t107 -59.5t71.5 -90t26 -112q0 -26 -4.5 -50.5t-17 -50.5t-34.5 -55t-56 -64q-18 -18 -29 -31t-17 -23.5t-8.5 -19.5t-2.5 -20t4 -24t19.5 -32t47 -44.5t86.5 -60.5
q65 -42 111.5 -81.5t76 -82.5t43 -92t13.5 -110q0 -56 -24 -115.5t-72 -108.5t-121 -80.5t-170 -31.5q-38 0 -74.5 4t-69 11.5t-59.5 17.5t-45 22l-30 267l4 5q51 -49 117.5 -74t135.5 -25q161 0 161 116q0 20 -8 38.5t-29 40t-58 47.5t-95 61q-113 68 -160.5 138t-47.5 144
q0 28 5 53.5t16 49.5t28 48.5t41 50.5t39 45t23 33.5t11 27t3 26.5q0 16 -8 31t-23 27t-37 19t-49 7q-45 0 -79.5 -20.5t-58 -68.5t-35 -125.5t-11.5 -191.5v-855q0 -78 -7.5 -137t-22 -102.5t-35.5 -73t-48 -49.5l-201 131v5z" />
    <glyph glyph-name="agrave" unicode="&#xe0;" horiz-adv-x="1084" 
d="M198 1513l-1 7q40 -4 74 -7t70 -5.5t78 -3.5t98 -1l169 -313h-226zM75 332q0 65 31.5 126.5t96.5 109t165.5 76.5t237.5 29q9 0 18.5 -0.5t19.5 -0.5l52 -4q-4 50 -18 83t-40.5 53t-65 28t-92.5 8q-40 0 -85.5 -8t-88.5 -22t-79 -32t-57 -38l-3 2l-30 230
q76 42 175.5 67.5t205.5 25.5q108 0 188.5 -27.5t133 -80t78.5 -127.5t26 -169v-362q0 -63 20 -100t62 -58l-181 -166q-47 24 -78 67q-60 -29 -126.5 -43t-135.5 -14q-101 0 -180.5 24t-135 68.5t-85 109t-29.5 145.5zM320 339q0 -63 58 -103t170 -40q81 0 154 32
q-3 30 -3 62v183q-18 4 -45.5 4.5t-50.5 0.5q-77 0 -131 -12.5t-88 -33t-49 -45t-15 -48.5z" />
    <glyph glyph-name="aacute" unicode="&#xe1;" horiz-adv-x="1084" 
d="M542 1503q56 0 98 1t78 3.5t70 5.5t74 7l-1 -7l-262 -323h-226zM75 332q0 65 31.5 126.5t96.5 109t165.5 76.5t237.5 29q9 0 18.5 -0.5t19.5 -0.5l52 -4q-4 50 -18 83t-40.5 53t-65 28t-92.5 8q-40 0 -85.5 -8t-88.5 -22t-79 -32t-57 -38l-3 2l-30 230q76 42 175.5 67.5
t205.5 25.5q108 0 188.5 -27.5t133 -80t78.5 -127.5t26 -169v-362q0 -63 20 -100t62 -58l-181 -166q-47 24 -78 67q-60 -29 -126.5 -43t-135.5 -14q-101 0 -180.5 24t-135 68.5t-85 109t-29.5 145.5zM320 339q0 -63 58 -103t170 -40q81 0 154 32q-3 30 -3 62v183
q-18 4 -45.5 4.5t-50.5 0.5q-77 0 -131 -12.5t-88 -33t-49 -45t-15 -48.5z" />
    <glyph glyph-name="acircumflex" unicode="&#xe2;" horiz-adv-x="1084" 
d="M167 1188l242 331q7 -1 23 -1.5t34 -1t34.5 -0.5h25.5q8 0 25.5 0.5t37 1t36 1t22.5 0.5l255 -331l-4 -3q-15 0 -43 0.5t-63 1t-74 1t-75 0.5l-113 177l-97 -177q-93 0 -162 -0.5t-101 -2.5zM75 332q0 65 31.5 126.5t96.5 109t165.5 76.5t237.5 29q9 0 18.5 -0.5
t19.5 -0.5l52 -4q-4 50 -18 83t-40.5 53t-65 28t-92.5 8q-40 0 -85.5 -8t-88.5 -22t-79 -32t-57 -38l-3 2l-30 230q76 42 175.5 67.5t205.5 25.5q108 0 188.5 -27.5t133 -80t78.5 -127.5t26 -169v-362q0 -63 20 -100t62 -58l-181 -166q-47 24 -78 67q-60 -29 -126.5 -43
t-135.5 -14q-101 0 -180.5 24t-135 68.5t-85 109t-29.5 145.5zM320 339q0 -63 58 -103t170 -40q81 0 154 32q-3 30 -3 62v183q-18 4 -45.5 4.5t-50.5 0.5q-77 0 -131 -12.5t-88 -33t-49 -45t-15 -48.5z" />
    <glyph glyph-name="atilde" unicode="&#xe3;" horiz-adv-x="1084" 
d="M208 1206l-4 199q27 32 71.5 56t113.5 24q41 0 71 -8t54.5 -20t45.5 -26.5t44.5 -26.5t52 -20t66.5 -8q57 0 96.5 19.5t59.5 64.5l2 -2l-10 -216q-17 -30 -61 -49.5t-101 -19.5q-39 0 -68.5 8t-54.5 20t-46.5 25.5t-45.5 25.5t-51.5 20t-63.5 8q-59 0 -97.5 -21.5
t-69.5 -53.5zM75 332q0 65 31.5 126.5t96.5 109t165.5 76.5t237.5 29q9 0 18.5 -0.5t19.5 -0.5l52 -4q-4 50 -18 83t-40.5 53t-65 28t-92.5 8q-40 0 -85.5 -8t-88.5 -22t-79 -32t-57 -38l-3 2l-30 230q76 42 175.5 67.5t205.5 25.5q108 0 188.5 -27.5t133 -80t78.5 -127.5
t26 -169v-362q0 -63 20 -100t62 -58l-181 -166q-47 24 -78 67q-60 -29 -126.5 -43t-135.5 -14q-101 0 -180.5 24t-135 68.5t-85 109t-29.5 145.5zM320 339q0 -63 58 -103t170 -40q81 0 154 32q-3 30 -3 62v183q-18 4 -45.5 4.5t-50.5 0.5q-77 0 -131 -12.5t-88 -33t-49 -45
t-15 -48.5z" />
    <glyph glyph-name="adieresis" unicode="&#xe4;" horiz-adv-x="1084" 
d="M629 1190q4 31 6 62.5t2 63.5q0 29 -2 62t-4 52h263q-2 -25 -3 -61.5t-1 -64.5q0 -32 0.5 -60t3.5 -54h-265zM199 1190q4 31 6 62.5t2 63.5q0 29 -2 62t-4 52h263q-2 -25 -3 -61.5t-1 -64.5q0 -32 0.5 -60t3.5 -54h-265zM75 332q0 65 31.5 126.5t96.5 109t165.5 76.5
t237.5 29q9 0 18.5 -0.5t19.5 -0.5l52 -4q-4 50 -18 83t-40.5 53t-65 28t-92.5 8q-40 0 -85.5 -8t-88.5 -22t-79 -32t-57 -38l-3 2l-30 230q76 42 175.5 67.5t205.5 25.5q108 0 188.5 -27.5t133 -80t78.5 -127.5t26 -169v-362q0 -63 20 -100t62 -58l-181 -166q-47 24 -78 67
q-60 -29 -126.5 -43t-135.5 -14q-101 0 -180.5 24t-135 68.5t-85 109t-29.5 145.5zM320 339q0 -63 58 -103t170 -40q81 0 154 32q-3 30 -3 62v183q-18 4 -45.5 4.5t-50.5 0.5q-77 0 -131 -12.5t-88 -33t-49 -45t-15 -48.5z" />
    <glyph glyph-name="aring" unicode="&#xe5;" horiz-adv-x="1084" 
d="M526 1180q-59 0 -109 16t-86 46t-56 73.5t-20 98.5q0 52 19 96.5t55.5 77t90 50.5t122.5 18q61 0 111 -18.5t85.5 -50.5t55 -75.5t19.5 -92.5q0 -56 -21 -100t-59 -75t-90.5 -47.5t-116.5 -16.5zM535 1321q23 0 44 7.5t37 21t25.5 31.5t9.5 39q0 18 -7.5 35.5t-22.5 32
t-37.5 23.5t-52.5 9q-31 0 -53 -9t-36.5 -23.5t-21 -32.5t-6.5 -36q0 -39 30 -68.5t91 -29.5zM75 332q0 65 31.5 126.5t96.5 109t165.5 76.5t237.5 29q9 0 18.5 -0.5t19.5 -0.5l52 -4q-4 50 -18 83t-40.5 53t-65 28t-92.5 8q-40 0 -85.5 -8t-88.5 -22t-79 -32t-57 -38l-3 2
l-30 230q76 42 175.5 67.5t205.5 25.5q108 0 188.5 -27.5t133 -80t78.5 -127.5t26 -169v-362q0 -63 20 -100t62 -58l-181 -166q-47 24 -78 67q-60 -29 -126.5 -43t-135.5 -14q-101 0 -180.5 24t-135 68.5t-85 109t-29.5 145.5zM320 339q0 -63 58 -103t170 -40q81 0 154 32
q-3 30 -3 62v183q-18 4 -45.5 4.5t-50.5 0.5q-77 0 -131 -12.5t-88 -33t-49 -45t-15 -48.5z" />
    <glyph glyph-name="ae" unicode="&#xe6;" horiz-adv-x="1777" 
d="M75 332q0 81 39 152t109.5 123.5t167.5 83t213 30.5q11 0 23.5 -0.5t23.5 -2.5q-20 76 -76.5 108.5t-134.5 32.5q-38 0 -76 -10t-73.5 -28.5t-66.5 -44.5t-54 -57l-3 2l-30 231q143 113 341 113q114 0 200 -38.5t143 -110.5q75 72 176.5 110.5t230.5 38.5
q100 0 187.5 -35.5t152.5 -99t102 -152.5t37 -196q0 -38 -4.5 -66t-7.5 -40q-26 -7 -67 -12.5t-95 -9.5t-118.5 -6t-136.5 -2h-85t-102 0.5t-100.5 0.5h-81.5q26 -109 122.5 -168t262.5 -59q60 0 111 11.5t91.5 28t69.5 35t45 31.5q-2 -49 -5.5 -112t-9.5 -151
q-26 -17 -65 -31t-84.5 -24.5t-95 -16.5t-97.5 -6q-128 0 -231 29.5t-181 89.5q-72 -55 -161.5 -87t-207.5 -32q-93 0 -167 26.5t-125 73t-78.5 110t-27.5 137.5zM928 666q27 -1 63.5 -1.5t73.5 -1t70.5 -0.5h54.5q24 0 58.5 0.5t72 1t73.5 2t64 3.5q-11 37 -35 67.5
t-58.5 52t-77 33.5t-90.5 12q-45 0 -85.5 -12t-75.5 -33.5t-62.5 -53t-45.5 -70.5zM320 356q0 -72 48.5 -114.5t139.5 -42.5q57 0 109.5 17.5t97.5 54.5q-29 49 -43.5 107.5t-14.5 133.5q-20 3 -48 3q-68 0 -121.5 -12t-91 -33.5t-57 -50.5t-19.5 -63z" />
    <glyph glyph-name="ccedilla" unicode="&#xe7;" horiz-adv-x="1059" 
d="M489 0q-89 20 -164 65t-129.5 110t-85 149t-30.5 182q0 108 40.5 209t116.5 179t184 124.5t243 46.5q97 0 174 -22.5t146 -67.5l-40 -266l-7 1q-49 60 -123.5 92.5t-183.5 32.5q-62 0 -117.5 -22t-97 -61t-66 -93.5t-24.5 -118.5q0 -72 25.5 -131t71 -101t108.5 -65
t139 -23q49 0 94.5 11.5t83 33t66.5 51.5t46 68l7 -3l23 -274q-60 -46 -130.5 -76.5t-155.5 -40.5q5 -36 7 -66t2 -62q0 -97 -22.5 -152t-51.5 -72q-11 -7 -26 -14.5t-39.5 -16.5t-60.5 -18.5t-89 -20.5l-6 6q19 27 32.5 78t21.5 111.5t12 123t4 113.5h2z" />
    <glyph glyph-name="egrave" unicode="&#xe8;" horiz-adv-x="1170" 
d="M251 1513l-1 7q40 -4 74 -7t70 -5.5t78 -3.5t98 -1l169 -313h-226zM70 516q0 115 40 215t113 174.5t176.5 117t231.5 42.5q108 0 195 -37.5t147.5 -103t93.5 -153.5t33 -189q0 -38 -3.5 -67t-8.5 -41q-25 -7 -65.5 -12.5t-93 -9t-115.5 -5t-133 -1.5h-82.5t-96 0.5
t-94 0.5h-76.5q26 -109 119 -168t246 -59q58 0 109 10t92 25t71 31.5t45 29.5q-2 -49 -5 -108t-10 -145q-25 -17 -64.5 -31t-86 -24.5t-96 -16.5t-95.5 -6q-126 0 -233.5 39t-186 109t-123 167.5t-44.5 215.5zM342 657q24 -2 58 -3t70 -1h69h54q23 0 54.5 0.5t65.5 1t66.5 2
t58.5 3.5q-18 93 -74.5 144t-163.5 51q-47 0 -88 -14.5t-74 -40.5t-57.5 -62.5t-38.5 -80.5z" />
    <glyph glyph-name="eacute" unicode="&#xe9;" horiz-adv-x="1170" 
d="M629 1503q56 0 98 1t78 3.5t70 5.5t74 7l-1 -7l-262 -323h-226zM70 516q0 115 40 215t113 174.5t176.5 117t231.5 42.5q108 0 195 -37.5t147.5 -103t93.5 -153.5t33 -189q0 -38 -3.5 -67t-8.5 -41q-25 -7 -65.5 -12.5t-93 -9t-115.5 -5t-133 -1.5h-82.5t-96 0.5t-94 0.5
h-76.5q26 -109 119 -168t246 -59q58 0 109 10t92 25t71 31.5t45 29.5q-2 -49 -5 -108t-10 -145q-25 -17 -64.5 -31t-86 -24.5t-96 -16.5t-95.5 -6q-126 0 -233.5 39t-186 109t-123 167.5t-44.5 215.5zM342 657q24 -2 58 -3t70 -1h69h54q23 0 54.5 0.5t65.5 1t66.5 2
t58.5 3.5q-18 93 -74.5 144t-163.5 51q-47 0 -88 -14.5t-74 -40.5t-57.5 -62.5t-38.5 -80.5z" />
    <glyph glyph-name="ecircumflex" unicode="&#xea;" horiz-adv-x="1170" 
d="M210 1188l242 331q7 -1 23 -1.5t34 -1t34.5 -0.5h25.5q8 0 25.5 0.5t37 1t36 1t22.5 0.5l255 -331l-4 -3q-15 0 -43 0.5t-63 1t-74 1t-75 0.5l-113 177l-97 -177q-93 0 -162 -0.5t-101 -2.5zM70 516q0 115 40 215t113 174.5t176.5 117t231.5 42.5q108 0 195 -37.5
t147.5 -103t93.5 -153.5t33 -189q0 -38 -3.5 -67t-8.5 -41q-25 -7 -65.5 -12.5t-93 -9t-115.5 -5t-133 -1.5h-82.5t-96 0.5t-94 0.5h-76.5q26 -109 119 -168t246 -59q58 0 109 10t92 25t71 31.5t45 29.5q-2 -49 -5 -108t-10 -145q-25 -17 -64.5 -31t-86 -24.5t-96 -16.5
t-95.5 -6q-126 0 -233.5 39t-186 109t-123 167.5t-44.5 215.5zM342 657q24 -2 58 -3t70 -1h69h54q23 0 54.5 0.5t65.5 1t66.5 2t58.5 3.5q-18 93 -74.5 144t-163.5 51q-47 0 -88 -14.5t-74 -40.5t-57.5 -62.5t-38.5 -80.5z" />
    <glyph glyph-name="edieresis" unicode="&#xeb;" horiz-adv-x="1170" 
d="M712 1190q4 31 6 62.5t2 63.5q0 29 -2 62t-4 52h263q-2 -25 -3 -61.5t-1 -64.5q0 -32 0.5 -60t3.5 -54h-265zM282 1190q4 31 6 62.5t2 63.5q0 29 -2 62t-4 52h263q-2 -25 -3 -61.5t-1 -64.5q0 -32 0.5 -60t3.5 -54h-265zM70 516q0 115 40 215t113 174.5t176.5 117
t231.5 42.5q108 0 195 -37.5t147.5 -103t93.5 -153.5t33 -189q0 -38 -3.5 -67t-8.5 -41q-25 -7 -65.5 -12.5t-93 -9t-115.5 -5t-133 -1.5h-82.5t-96 0.5t-94 0.5h-76.5q26 -109 119 -168t246 -59q58 0 109 10t92 25t71 31.5t45 29.5q-2 -49 -5 -108t-10 -145
q-25 -17 -64.5 -31t-86 -24.5t-96 -16.5t-95.5 -6q-126 0 -233.5 39t-186 109t-123 167.5t-44.5 215.5zM342 657q24 -2 58 -3t70 -1h69h54q23 0 54.5 0.5t65.5 1t66.5 2t58.5 3.5q-18 93 -74.5 144t-163.5 51q-47 0 -88 -14.5t-74 -40.5t-57.5 -62.5t-38.5 -80.5z" />
    <glyph glyph-name="igrave" unicode="&#xec;" horiz-adv-x="569" 
d="M-49 1513l-1 7q40 -4 74 -7t70 -5.5t78 -3.5t98 -1l169 -313h-226zM160 1045h245v-933q0 -51 1 -75t3 -37h-249v1045z" />
    <glyph glyph-name="iacute" unicode="&#xed;" horiz-adv-x="569" 
d="M339 1503q56 0 98 1t78 3.5t70 5.5t74 7l-1 -7l-262 -323h-226zM160 1045h245v-933q0 -51 1 -75t3 -37h-249v1045z" />
    <glyph glyph-name="icircumflex" unicode="&#xee;" horiz-adv-x="569" 
d="M-90 1188l242 331q7 -1 23 -1.5t34 -1t34.5 -0.5h25.5q8 0 25.5 0.5t37 1t36 1t22.5 0.5l255 -331l-4 -3q-15 0 -43 0.5t-63 1t-74 1t-75 0.5l-113 177l-97 -177q-93 0 -162 -0.5t-101 -2.5zM160 1045h245v-933q0 -51 1 -75t3 -37h-249v1045z" />
    <glyph glyph-name="idieresis" unicode="&#xef;" horiz-adv-x="589" 
d="M372 1190q4 31 6 62.5t2 63.5q0 29 -2 62t-4 52h263q-2 -25 -3 -61.5t-1 -64.5q0 -32 0.5 -60t3.5 -54h-265zM-58 1190q4 31 6 62.5t2 63.5q0 29 -2 62t-4 52h263q-2 -25 -3 -61.5t-1 -64.5q0 -32 0.5 -60t3.5 -54h-265zM170 1045h245v-933q0 -51 1 -75t3 -37h-249v1045z
" />
    <glyph glyph-name="eth" unicode="&#xf0;" horiz-adv-x="1112" 
d="M67 443q0 119 39.5 204.5t104.5 140.5t149.5 81t174.5 26q35 0 73 -7t76 -21q-59 106 -147 209l-305 -115l-57 182l221 80q-54 52 -115.5 102.5t-133.5 104.5h320q42 -29 81 -60.5t76 -63.5l239 87l56 -173l-155 -59q131 -156 199.5 -324t68.5 -333q0 -116 -39.5 -211.5
t-107 -164t-156.5 -106t-188 -37.5q-104 0 -191 36.5t-150 99.5t-98 146t-35 176zM325 465q0 -48 17 -92.5t48 -78.5t75.5 -54t98.5 -20q41 0 81.5 15.5t72 49t51 85.5t19.5 126q0 5 -0.5 8.5t-0.5 8.5q-20 42 -44 71t-54 47t-66.5 26t-80.5 8t-83 -12.5t-69 -37t-47.5 -62
t-17.5 -88.5z" />
    <glyph glyph-name="ntilde" unicode="&#xf1;" horiz-adv-x="1152" 
d="M238 1223l-4 199q27 32 71.5 56t113.5 24q41 0 71 -8t54.5 -20t45.5 -26.5t44.5 -26.5t52 -20t66.5 -8q57 0 96.5 19.5t59.5 64.5l2 -2l-10 -216q-17 -30 -61 -49.5t-101 -19.5q-39 0 -68.5 8t-54.5 20t-46.5 25.5t-45.5 25.5t-51.5 20t-63.5 8q-59 0 -97.5 -21.5
t-69.5 -53.5zM140 1045h245v-89q69 57 138 83t144 26q82 0 148.5 -29t113.5 -82.5t72.5 -128t25.5 -165.5v-245v-152.5t1 -105t2 -67.5t3 -39q4 -26 12.5 -36t14.5 -18l-2 -4q-14 1 -33 2.5t-41.5 2.5t-47 1.5t-48.5 0.5q-17 0 -43.5 -0.5t-62.5 -2.5v545q0 76 -12.5 131.5
t-36 91.5t-56 53t-71.5 17q-63 0 -119 -37t-102 -109v-561q0 -45 1.5 -74t6.5 -54h-253v1045z" />
    <glyph glyph-name="ograve" unicode="&#xf2;" horiz-adv-x="1235" 
d="M229 1513l-1 7q40 -4 74 -7t70 -5.5t78 -3.5t98 -1l169 -313h-226zM80 512q0 115 39 215.5t111 175.5t174 118.5t228 43.5q124 0 221.5 -40.5t164.5 -112t102 -169t35 -210.5q0 -112 -36 -211.5t-105 -174.5t-168.5 -118.5t-226.5 -43.5q-133 0 -234 43t-168.5 116
t-102 168t-34.5 200zM329 529q0 -69 21.5 -126.5t61.5 -98t95.5 -63t124.5 -22.5q65 0 115.5 22t85.5 62t53 95.5t18 123.5q0 67 -19 124.5t-56 99.5t-90.5 65.5t-122.5 23.5q-72 0 -126 -26.5t-90 -69.5t-53.5 -98t-17.5 -112z" />
    <glyph glyph-name="oacute" unicode="&#xf3;" horiz-adv-x="1235" 
d="M607 1503q56 0 98 1t78 3.5t70 5.5t74 7l-1 -7l-262 -323h-226zM80 512q0 115 39 215.5t111 175.5t174 118.5t228 43.5q124 0 221.5 -40.5t164.5 -112t102 -169t35 -210.5q0 -112 -36 -211.5t-105 -174.5t-168.5 -118.5t-226.5 -43.5q-133 0 -234 43t-168.5 116t-102 168
t-34.5 200zM329 529q0 -69 21.5 -126.5t61.5 -98t95.5 -63t124.5 -22.5q65 0 115.5 22t85.5 62t53 95.5t18 123.5q0 67 -19 124.5t-56 99.5t-90.5 65.5t-122.5 23.5q-72 0 -126 -26.5t-90 -69.5t-53.5 -98t-17.5 -112z" />
    <glyph glyph-name="ocircumflex" unicode="&#xf4;" horiz-adv-x="1235" 
d="M252 1188l242 331q7 -1 23 -1.5t34 -1t34.5 -0.5h25.5q8 0 25.5 0.5t37 1t36 1t22.5 0.5l255 -331l-4 -3q-15 0 -43 0.5t-63 1t-74 1t-75 0.5l-113 177l-97 -177q-93 0 -162 -0.5t-101 -2.5zM80 512q0 115 39 215.5t111 175.5t174 118.5t228 43.5q124 0 221.5 -40.5
t164.5 -112t102 -169t35 -210.5q0 -112 -36 -211.5t-105 -174.5t-168.5 -118.5t-226.5 -43.5q-133 0 -234 43t-168.5 116t-102 168t-34.5 200zM329 529q0 -69 21.5 -126.5t61.5 -98t95.5 -63t124.5 -22.5q65 0 115.5 22t85.5 62t53 95.5t18 123.5q0 67 -19 124.5t-56 99.5
t-90.5 65.5t-122.5 23.5q-72 0 -126 -26.5t-90 -69.5t-53.5 -98t-17.5 -112z" />
    <glyph glyph-name="otilde" unicode="&#xf5;" horiz-adv-x="1235" 
d="M282 1206l-4 199q27 32 71.5 56t113.5 24q41 0 71 -8t54.5 -20t45.5 -26.5t44.5 -26.5t52 -20t66.5 -8q57 0 96.5 19.5t59.5 64.5l2 -2l-10 -216q-17 -30 -61 -49.5t-101 -19.5q-39 0 -68.5 8t-54.5 20t-46.5 25.5t-45.5 25.5t-51.5 20t-63.5 8q-59 0 -97.5 -21.5
t-69.5 -53.5zM80 512q0 115 39 215.5t111 175.5t174 118.5t228 43.5q124 0 221.5 -40.5t164.5 -112t102 -169t35 -210.5q0 -112 -36 -211.5t-105 -174.5t-168.5 -118.5t-226.5 -43.5q-133 0 -234 43t-168.5 116t-102 168t-34.5 200zM329 529q0 -69 21.5 -126.5t61.5 -98
t95.5 -63t124.5 -22.5q65 0 115.5 22t85.5 62t53 95.5t18 123.5q0 67 -19 124.5t-56 99.5t-90.5 65.5t-122.5 23.5q-72 0 -126 -26.5t-90 -69.5t-53.5 -98t-17.5 -112z" />
    <glyph glyph-name="odieresis" unicode="&#xf6;" horiz-adv-x="1235" 
d="M685 1190q4 31 6 62.5t2 63.5q0 29 -2 62t-4 52h263q-2 -25 -3 -61.5t-1 -64.5q0 -32 0.5 -60t3.5 -54h-265zM255 1190q4 31 6 62.5t2 63.5q0 29 -2 62t-4 52h263q-2 -25 -3 -61.5t-1 -64.5q0 -32 0.5 -60t3.5 -54h-265zM80 512q0 115 39 215.5t111 175.5t174 118.5
t228 43.5q124 0 221.5 -40.5t164.5 -112t102 -169t35 -210.5q0 -112 -36 -211.5t-105 -174.5t-168.5 -118.5t-226.5 -43.5q-133 0 -234 43t-168.5 116t-102 168t-34.5 200zM329 529q0 -69 21.5 -126.5t61.5 -98t95.5 -63t124.5 -22.5q65 0 115.5 22t85.5 62t53 95.5
t18 123.5q0 67 -19 124.5t-56 99.5t-90.5 65.5t-122.5 23.5q-72 0 -126 -26.5t-90 -69.5t-53.5 -98t-17.5 -112z" />
    <glyph glyph-name="divide" unicode="&#xf7;" horiz-adv-x="1239" 
d="M476 885q5 34 7 69t2 70q0 16 -0.5 33.5t-1.5 34.5t-2.5 32l-2.5 25h290q-2 -28 -3.5 -67.5t-1.5 -70.5q0 -35 0.5 -66t4.5 -60h-292zM168 742q15 -4 45 -5t87 -1h639q57 0 87 1t45 5l3 -247q-29 3 -60.5 4t-63.5 1h-661q-32 0 -63.5 -1t-60.5 -4zM476 97q5 34 7 69t2 70
q0 16 -0.5 33.5t-1.5 34.5t-2.5 32l-2.5 25h290q-2 -28 -3.5 -67.5t-1.5 -70.5q0 -35 0.5 -66t4.5 -60h-292z" />
    <glyph glyph-name="oslash" unicode="&#xf8;" horiz-adv-x="1235" 
d="M309 67q-57 36 -100 84.5t-71.5 105.5t-43 121.5t-14.5 133.5q0 115 39 215.5t111 175.5t174 118.5t228 43.5q90 0 165 -22l59 118h176l-92 -183q106 -72 160.5 -186.5t54.5 -258.5q0 -112 -36 -211.5t-105 -174.5t-168.5 -118.5t-226.5 -43.5q-87 0 -165 20l-52 -105
h-176zM689 827q-17 4 -35 6t-38 2q-72 0 -126 -26.5t-90 -69.5t-53.5 -98t-17.5 -112q0 -75 24.5 -134t69.5 -101zM564 225q33 -6 68 -6q65 0 115.5 22t85.5 62t53 95.5t18 123.5q0 69 -20 127t-58 100z" />
    <glyph glyph-name="ugrave" unicode="&#xf9;" horiz-adv-x="1115" 
d="M199 1513l-1 7q40 -4 74 -7t70 -5.5t78 -3.5t98 -1l169 -313h-226zM120 630v152.5t-1 105t-2 67.5t-3 39q-3 19 -7 33t-8 22q26 -3 68 -3.5t92 -0.5q17 0 43.5 0.5t62.5 2.5v-579q0 -77 14 -125t39 -76t59 -38t74 -10q51 0 95.5 25.5t84.5 74.5v725h245v-917
q0 -45 1.5 -74t6.5 -54h-253v81q-32 -26 -61.5 -44.5t-59 -30t-61.5 -16.5t-69 -5q-82 0 -148.5 28.5t-113.5 80.5t-72.5 126t-25.5 165v245z" />
    <glyph glyph-name="uacute" unicode="&#xfa;" horiz-adv-x="1115" 
d="M567 1503q56 0 98 1t78 3.5t70 5.5t74 7l-1 -7l-262 -323h-226zM120 630v152.5t-1 105t-2 67.5t-3 39q-3 19 -7 33t-8 22q26 -3 68 -3.5t92 -0.5q17 0 43.5 0.5t62.5 2.5v-579q0 -77 14 -125t39 -76t59 -38t74 -10q51 0 95.5 25.5t84.5 74.5v725h245v-917q0 -45 1.5 -74
t6.5 -54h-253v81q-32 -26 -61.5 -44.5t-59 -30t-61.5 -16.5t-69 -5q-82 0 -148.5 28.5t-113.5 80.5t-72.5 126t-25.5 165v245z" />
    <glyph glyph-name="ucircumflex" unicode="&#xfb;" horiz-adv-x="1115" 
d="M170 1188l242 331q7 -1 23 -1.5t34 -1t34.5 -0.5h25.5q8 0 25.5 0.5t37 1t36 1t22.5 0.5l255 -331l-4 -3q-15 0 -43 0.5t-63 1t-74 1t-75 0.5l-113 177l-97 -177q-93 0 -162 -0.5t-101 -2.5zM120 630v152.5t-1 105t-2 67.5t-3 39q-3 19 -7 33t-8 22q26 -3 68 -3.5
t92 -0.5q17 0 43.5 0.5t62.5 2.5v-579q0 -77 14 -125t39 -76t59 -38t74 -10q51 0 95.5 25.5t84.5 74.5v725h245v-917q0 -45 1.5 -74t6.5 -54h-253v81q-32 -26 -61.5 -44.5t-59 -30t-61.5 -16.5t-69 -5q-82 0 -148.5 28.5t-113.5 80.5t-72.5 126t-25.5 165v245z" />
    <glyph glyph-name="udieresis" unicode="&#xfc;" horiz-adv-x="1115" 
d="M625 1190q4 31 6 62.5t2 63.5q0 29 -2 62t-4 52h263q-2 -25 -3 -61.5t-1 -64.5q0 -32 0.5 -60t3.5 -54h-265zM195 1190q4 31 6 62.5t2 63.5q0 29 -2 62t-4 52h263q-2 -25 -3 -61.5t-1 -64.5q0 -32 0.5 -60t3.5 -54h-265zM120 630v152.5t-1 105t-2 67.5t-3 39q-3 19 -7 33
t-8 22q26 -3 68 -3.5t92 -0.5q17 0 43.5 0.5t62.5 2.5v-579q0 -77 14 -125t39 -76t59 -38t74 -10q51 0 95.5 25.5t84.5 74.5v725h245v-917q0 -45 1.5 -74t6.5 -54h-253v81q-32 -26 -61.5 -44.5t-59 -30t-61.5 -16.5t-69 -5q-82 0 -148.5 28.5t-113.5 80.5t-72.5 126
t-25.5 165v245z" />
    <glyph glyph-name="yacute" unicode="&#xfd;" horiz-adv-x="972" 
d="M494 1503q56 0 98 1t78 3.5t70 5.5t74 7l-1 -7l-262 -323h-226zM356 186l-359 859h276l216 -575l216 575h274q-25 -36 -56.5 -98.5t-62.5 -141.5q-87 -225 -159 -399t-130.5 -305.5t-105.5 -225t-84.5 -157t-66.5 -100.5t-52 -56l-242 90l5 6q25 15 53 39.5t62.5 72
t78 124.5t99.5 197z" />
    <glyph glyph-name="thorn" unicode="&#xfe;" horiz-adv-x="1183" 
d="M385 -273q0 -51 1 -75t3 -37h-249v1815h249q-2 -13 -3 -37t-1 -75v-313q58 31 118 45.5t121 14.5q94 0 180.5 -32t153 -97.5t106 -165t39.5 -234.5q0 -90 -23 -166.5t-62 -138t-90 -108t-108 -78t-115.5 -47.5t-111.5 -16q-73 0 -121.5 10t-86.5 27v-292zM385 293
q42 -38 90.5 -55.5t96.5 -17.5q61 0 113.5 22.5t90.5 65t60 104t22 140.5q0 59 -14 103t-36.5 75.5t-50.5 51.5t-57 32t-56 16.5t-46 4.5q-57 0 -115 -23.5t-98 -65.5v-453z" />
    <glyph glyph-name="ydieresis" unicode="&#xff;" horiz-adv-x="972" 
d="M581 1190q4 31 6 62.5t2 63.5q0 29 -2 62t-4 52h263q-2 -25 -3 -61.5t-1 -64.5q0 -32 0.5 -60t3.5 -54h-265zM151 1190q4 31 6 62.5t2 63.5q0 29 -2 62t-4 52h263q-2 -25 -3 -61.5t-1 -64.5q0 -32 0.5 -60t3.5 -54h-265zM356 186l-359 859h276l216 -575l216 575h274
q-25 -36 -56.5 -98.5t-62.5 -141.5q-87 -225 -159 -399t-130.5 -305.5t-105.5 -225t-84.5 -157t-66.5 -100.5t-52 -56l-242 90l5 6q25 15 53 39.5t62.5 72t78 124.5t99.5 197z" />
    <glyph glyph-name="hbar" unicode="&#x127;" horiz-adv-x="1136" 
d="M140 1140h-111q2 15 3.5 26t2.5 19t1.5 15.5t0.5 15.5q0 29 -2 52t-4 42h109v150h245v-150h200q-2 -25 -3 -41.5t-1 -44.5v-26t0.5 -18.5t1.5 -17.5t2 -22h-200v-154q51 31 100 45t109 14q84 0 152.5 -29t117 -82.5t74.5 -128t26 -165.5v-243v-147.5t1 -99t2 -62.5t3 -37
q4 -26 12.5 -36t14.5 -18l-2 -4q-14 1 -33 2.5t-41.5 2.5t-47 1.5t-48.5 0.5q-17 0 -43.5 -0.5t-62.5 -2.5v559q0 76 -17 125.5t-43.5 78t-59.5 39.5t-66 11q-80 0 -148 -65v-633q0 -51 1 -75t3 -37h-249v1140z" />
    <glyph glyph-name="Itilde" unicode="&#x128;" horiz-adv-x="615" 
d="M-21 1471l-4 199q27 32 71.5 56t113.5 24q41 0 71 -8t54.5 -20t45.5 -26.5t44.5 -26.5t52 -20t66.5 -8q57 0 96.5 19.5t59.5 64.5l2 -2l-10 -216q-17 -30 -61 -49.5t-101 -19.5q-39 0 -68.5 8t-54.5 20t-46.5 25.5t-45.5 25.5t-51.5 20t-63.5 8q-59 0 -97.5 -21.5
t-69.5 -53.5zM180 1334q25 -1 41.5 -2t31 -1.5t30 -0.5h36.5q33 0 66.5 2t49.5 6v-1344q-9 1 -26 2t-40 2t-51 1.5t-58 0.5h-80v1334z" />
    <glyph glyph-name="itilde" unicode="&#x129;" horiz-adv-x="569" 
d="M67 1229l-20 202q17 25 53 37t73 12q44 0 69.5 -10.5t47.5 -22.5t48 -22.5t72 -10.5q39 0 67 9.5t51 45.5l10 -2l14 -206q-14 -30 -53 -45t-83 -15q-39 0 -69.5 10.5t-60 22.5t-62 22.5t-75.5 10.5q-28 0 -47.5 -11t-30.5 -28zM160 1045h245v-933q0 -51 1 -75t3 -37h-249
v1045z" />
    <glyph glyph-name="dotlessi" unicode="&#x131;" horiz-adv-x="569" 
d="M160 1045h245v-933q0 -51 1 -75t3 -37h-249v1045z" />
    <glyph glyph-name="ij" unicode="&#x133;" horiz-adv-x="1149" 
d="M710 1316q37 60 77.5 111t71.5 85l191 -151q-20 -25 -37 -47t-33.5 -44t-33 -45.5t-35.5 -52.5zM125 1316q37 60 77.5 111t71.5 85l191 -151q-20 -25 -37 -47t-33.5 -44t-33 -45.5t-35.5 -52.5zM472 -117q30 -20 59.5 -29t67.5 -9q35 0 62 12t46 38.5t28.5 68.5t9.5 101
v980h245v-908q0 -150 -28 -250.5t-81 -161t-130.5 -85.5t-176.5 -25l-104 263zM157 1045h313l-63 -933q0 -51 1 -75t3 -37h-254v1045z" />
    <glyph glyph-name="Jcircumflex" unicode="&#x134;" horiz-adv-x="921" 
d="M272 1443l242 331q7 -1 23 -1.5t34 -1t34.5 -0.5h25.5q8 0 25.5 0.5t37 1t36 1t22.5 0.5l255 -331l-4 -3q-15 0 -43 0.5t-63 1t-74 1t-75 0.5l-113 177l-97 -177q-93 0 -162 -0.5t-101 -2.5zM50 392l7 2q18 -45 44.5 -78.5t60 -56t73 -34t81.5 -11.5q52 0 91 16
t65.5 45.5t40 70t13.5 88.5v901q24 -2 39.5 -3t28.5 -1.5t26.5 -0.5h34.5q38 0 70 2t56 6v-896q0 -113 -34 -200t-93 -146.5t-139 -90t-171 -30.5q-87 0 -157.5 21.5t-136.5 76.5v319z" />
    <glyph glyph-name="jcircumflex" unicode="&#x135;" horiz-adv-x="589" 
d="M-70 1188l242 331q7 -1 23 -1.5t34 -1t34.5 -0.5h25.5q8 0 25.5 0.5t37 1t36 1t22.5 0.5l255 -331l-4 -3q-15 0 -43 0.5t-63 1t-74 1t-75 0.5l-113 177l-97 -177q-93 0 -162 -0.5t-101 -2.5zM-88 -117q30 -20 59.5 -29t67.5 -9q35 0 62 12t46 38.5t28.5 68.5t9.5 101v980
h245v-908q0 -150 -28 -250.5t-81 -161t-130.5 -85.5t-176.5 -25l-104 263z" />
    <glyph glyph-name="kcommaaccent" unicode="&#x137;" horiz-adv-x="1071" 
d="M140 1430h245v-812l292 427h302l-299 -391l251 -436q21 -37 39.5 -68t36 -57t35.5 -49t39 -44h-148q-62 0 -96 -5t-55 -10l-263 464l-58 -76q-21 -27 -40 -49.5t-36 -40.5v-151q0 -51 2.5 -85t4.5 -47h-252v1430zM646 -91q4 -28 7 -51t5 -44t3 -41t1 -42q0 -49 -6 -94.5
t-16.5 -82.5t-24 -62.5t-27.5 -34.5q-11 -7 -29.5 -15t-46 -16.5t-67 -18t-92.5 -20.5l-6 6q9 16 19.5 46t20 69.5t15.5 86.5t6 97q0 39 -2 82.5t-9 94.5z" />
    <glyph glyph-name="kgreenlandic" unicode="&#x138;" horiz-adv-x="1141" 
d="M160 1045h245v-506l332 506h272l-264 -384l246 -443q41 -75 75.5 -125.5t74.5 -92.5h-148q-31 0 -53 -1t-38 -3.5t-28 -5t-22 -5.5l-263 464l-58 -76q-32 -42 -66 -81t-60 -65v-95q0 -51 2.5 -85t4.5 -47h-252v1045z" />
    <glyph glyph-name="ldot" unicode="&#x140;" horiz-adv-x="763" 
d="M142 1430h250v-1318q0 -51 1 -75t3 -37h-254v1430zM527 605q5 32 6.5 65.5t1.5 65.5q0 30 -1.5 64.5t-4.5 53.5h234q-2 -26 -3.5 -63.5t-1.5 -66.5q0 -34 0.5 -62.5t4.5 -56.5h-236z" />
    <glyph glyph-name="Lslash" unicode="&#x141;" horiz-adv-x="936" 
d="M180 569l-143 -49q1 19 1 40.5v41.5v32q0 26 -1.5 56.5t-3.5 54.5l147 51v540q8 -2 42.5 -4t82.5 -2q21 0 50 1t80 3v-449l206 72q-1 -8 -1 -15.5v-15.5q0 -22 1 -43.5t1 -37.5v-58v-31.5t1 -27.5l-208 -72v-416h267q15 0 36 0.5t42 1.5t39 2t27 2l-4 -122
q-1 -23 -1.5 -46t-1 -41t-0.5 -30v-14q-28 2 -58.5 3.5t-68 2t-84.5 1t-108 0.5h-165q-30 0 -58 -0.5t-51 -1.5t-40 -2t-26 -2v575z" />
    <glyph glyph-name="lslash" unicode="&#x142;" horiz-adv-x="570" 
d="M166 601l-147 -56q1 19 1 37.5v36.5v30q0 26 -1.5 51.5t-3.5 49.5l151 56v624h250v-531l137 51q-2 -16 -2 -32v-32q0 -36 0.5 -68t3.5 -67l-139 -54v-585q0 -51 1 -75t3 -37h-254v601z" />
    <glyph glyph-name="Nacute" unicode="&#x143;" horiz-adv-x="1276" 
d="M667 1758q56 0 98 1t78 3.5t70 5.5t74 7l-1 -7l-262 -323h-226zM160 0q3 17 4.5 33.5t1.5 40.5v1256h220q52 -98 105 -192t110 -190.5t120 -200t135 -219.5v734q0 55 -10 68h270q-2 -16 -3.5 -37.5t-1.5 -50.5v-1242h-218q-55 85 -99.5 153.5t-83 127.5t-73 113.5
t-68.5 110.5t-70 118.5t-78 138.5v-762h-261z" />
    <glyph glyph-name="nacute" unicode="&#x144;" horiz-adv-x="1152" 
d="M571 1503q56 0 98 1t78 3.5t70 5.5t74 7l-1 -7l-262 -323h-226zM140 1045h245v-89q69 57 138 83t144 26q82 0 148.5 -29t113.5 -82.5t72.5 -128t25.5 -165.5v-245v-152.5t1 -105t2 -67.5t3 -39q4 -26 12.5 -36t14.5 -18l-2 -4q-14 1 -33 2.5t-41.5 2.5t-47 1.5t-48.5 0.5
q-17 0 -43.5 -0.5t-62.5 -2.5v545q0 76 -12.5 131.5t-36 91.5t-56 53t-71.5 17q-63 0 -119 -37t-102 -109v-561q0 -45 1.5 -74t6.5 -54h-253v1045z" />
    <glyph glyph-name="OE" unicode="&#x152;" horiz-adv-x="2058" 
d="M100 637q0 143 49.5 273t141 229t220.5 157.5t289 58.5q120 0 222.5 -38t186.5 -108v128q27 -2 59.5 -3.5t67 -2l69 -1t66.5 -0.5q96 0 219 1.5t264 6.5q-3 -24 -5 -58t-3.5 -68t-2 -63.5t-0.5 -45.5q0 -14 2 -24l-2 -3q-14 4 -27 7t-29.5 4.5t-38.5 2.5t-53 1h-331v-255
h292q57 0 87 1t45 5l3 -247q-29 3 -60.5 4t-63.5 1h-303v-360h424q39 0 57.5 3.5t28.5 8.5l4 -1v-251h-769v143q-90 -79 -199.5 -123.5t-236.5 -44.5q-141 0 -263.5 48t-213.5 135t-143.5 209t-52.5 270zM358 648q0 -93 34.5 -172.5t93.5 -137.5t139 -90.5t171 -32.5
q85 0 160 31t131 88.5t89 139t33 183.5q0 98 -33 181t-90.5 143.5t-136 94.5t-169.5 34q-98 0 -176 -37.5t-133 -101t-84 -147.5t-29 -176z" />
    <glyph glyph-name="oe" unicode="&#x153;" horiz-adv-x="2067" 
d="M80 512q0 117 40 218t114.5 175.5t181 117t239.5 42.5q140 0 245 -50t174 -138q75 88 184 138t250 50q105 0 194.5 -33.5t155 -96.5t102.5 -152.5t37 -200.5q0 -38 -4.5 -66t-7.5 -40q-31 -8 -84 -14t-122.5 -9.5t-152.5 -5t-175 -1.5h-77t-68 2v222q29 -5 74.5 -6
t99.5 -1q24 0 58.5 0.5t72 1t73.5 2t64 3.5q-12 37 -38 67.5t-62 52t-79.5 33.5t-91.5 12q-59 0 -109.5 -20t-88.5 -57t-61 -88t-27 -114q0 -9 0.5 -18t0.5 -18v-11.5t-1 -10.5q6 -65 37 -116.5t82 -87.5t120.5 -55t153.5 -19q60 0 111 11.5t91.5 28t69.5 35t45 31.5
q-2 -49 -5.5 -112t-9.5 -151q-26 -17 -65 -31t-84.5 -24.5t-95 -16.5t-97.5 -6q-151 0 -273.5 49t-203.5 143q-78 -91 -189 -141.5t-246 -50.5q-141 0 -245 46.5t-172.5 121.5t-101.5 169.5t-33 189.5zM324 529q0 -63 24.5 -119.5t66.5 -99t99 -67t122 -24.5q63 0 119.5 20
t99 58.5t67.5 93.5t25 125q0 67 -22.5 125.5t-63 101.5t-97.5 67.5t-125 24.5q-75 0 -133.5 -26.5t-99 -69.5t-61.5 -98t-21 -112z" />
    <glyph glyph-name="Racute" unicode="&#x154;" horiz-adv-x="1182" 
d="M600 1758q56 0 98 1t78 3.5t70 5.5t74 7l-1 -7l-262 -323h-226zM180 1337q62 9 126.5 13.5t147.5 4.5q138 0 246.5 -31.5t182.5 -88t113 -135.5t39 -174q0 -97 -44 -178t-129 -138l208 -454q32 -71 53 -107.5t39 -50.5l-5 -5q-25 4 -49 5.5t-48 1.5q-38 0 -86.5 -1.5
t-111.5 -6.5l-228 533q-30 -5 -61.5 -7.5t-65.5 -2.5q-17 0 -35.5 1t-36.5 3v-519h-255v1337zM435 750q27 -5 52 -5.5t47 -0.5q52 0 97 14t78 38t52 56t19 69q0 39 -20 74.5t-58.5 62t-95.5 42t-131 15.5h-21t-19 -1v-364z" />
    <glyph glyph-name="Rcommaaccent" unicode="&#x156;" horiz-adv-x="1182" 
d="M180 1337q62 9 126.5 13.5t147.5 4.5q138 0 246.5 -31.5t182.5 -88t113 -135.5t39 -174q0 -97 -44 -178t-129 -138l208 -454q32 -71 53 -107.5t39 -50.5l-5 -5q-25 4 -49 5.5t-48 1.5q-38 0 -86.5 -1.5t-111.5 -6.5l-228 533q-30 -5 -61.5 -7.5t-65.5 -2.5q-17 0 -35.5 1
t-36.5 3v-519h-255v1337zM435 750q27 -5 52 -5.5t47 -0.5q52 0 97 14t78 38t52 56t19 69q0 39 -20 74.5t-58.5 62t-95.5 42t-131 15.5h-21t-19 -1v-364zM734 -91q4 -28 7 -51t5 -44t3 -41t1 -42q0 -49 -6 -94.5t-16.5 -82.5t-24 -62.5t-27.5 -34.5q-11 -7 -29.5 -15
t-46 -16.5t-67 -18t-92.5 -20.5l-6 6q9 16 19.5 46t20 69.5t15.5 86.5t6 97q0 39 -2 82.5t-9 94.5z" />
    <glyph glyph-name="rcommaaccent" unicode="&#x157;" horiz-adv-x="749" 
d="M140 1045h245v-67q37 35 84 61t98 26q40 0 78 -6t64 -17l-18 -269l-4 -3q-17 33 -57 47.5t-86 14.5q-42 0 -85.5 -28t-73.5 -76v-616q0 -51 1 -75t3 -37h-249v1045zM407 -91q4 -28 7 -51t5 -44t3 -41t1 -42q0 -49 -6 -94.5t-16.5 -82.5t-24 -62.5t-27.5 -34.5
q-11 -7 -29.5 -15t-46 -16.5t-67 -18t-92.5 -20.5l-6 6q9 16 19.5 46t20 69.5t15.5 86.5t6 97q0 39 -2 82.5t-9 94.5z" />
    <glyph glyph-name="Rcaron" unicode="&#x158;" horiz-adv-x="1182" 
d="M235 1776l3 3q32 -2 101 -2.5t162 -0.5l97 -177l113 177q36 0 75 0.5t74 1t63 1t43 0.5l4 -3l-255 -331q-6 0 -22.5 0.5t-36 1t-37 1t-25.5 0.5h-25.5t-34.5 -0.5t-34 -1t-23 -1.5zM180 1337q62 9 126.5 13.5t147.5 4.5q138 0 246.5 -31.5t182.5 -88t113 -135.5t39 -174
q0 -97 -44 -178t-129 -138l208 -454q32 -71 53 -107.5t39 -50.5l-5 -5q-25 4 -49 5.5t-48 1.5q-38 0 -86.5 -1.5t-111.5 -6.5l-228 533q-30 -5 -61.5 -7.5t-65.5 -2.5q-17 0 -35.5 1t-36.5 3v-519h-255v1337zM435 750q27 -5 52 -5.5t47 -0.5q52 0 97 14t78 38t52 56t19 69
q0 39 -20 74.5t-58.5 62t-95.5 42t-131 15.5h-21t-19 -1v-364z" />
    <glyph glyph-name="rcaron" unicode="&#x159;" horiz-adv-x="749" 
d="M17 1516l3 3q32 -2 101 -2.5t162 -0.5l97 -177l113 177q36 0 75 0.5t74 1t63 1t43 0.5l4 -3l-255 -331q-6 0 -22.5 0.5t-36 1t-37 1t-25.5 0.5h-25.5t-34.5 -0.5t-34 -1t-23 -1.5zM140 1045h245v-67q37 35 84 61t98 26q40 0 78 -6t64 -17l-18 -269l-4 -3q-17 33 -57 47.5
t-86 14.5q-42 0 -85.5 -28t-73.5 -76v-616q0 -51 1 -75t3 -37h-249v1045z" />
    <glyph glyph-name="circumflex" unicode="&#x2c6;" horiz-adv-x="900" 
d="M75 1188l242 331q7 -1 23 -1.5t34 -1t34.5 -0.5h25.5q8 0 25.5 0.5t37 1t36 1t22.5 0.5l255 -331l-4 -3q-15 0 -43 0.5t-63 1t-74 1t-75 0.5l-113 177l-97 -177q-93 0 -162 -0.5t-101 -2.5z" />
    <glyph glyph-name="ring" unicode="&#x2da;" horiz-adv-x="708" 
d="M346 1180q-59 0 -109 16t-86 46t-56 73.5t-20 98.5q0 52 19 96.5t55.5 77t90 50.5t122.5 18q61 0 111 -18.5t85.5 -50.5t55 -75.5t19.5 -92.5q0 -56 -21 -100t-59 -75t-90.5 -47.5t-116.5 -16.5zM355 1321q23 0 44 7.5t37 21t25.5 31.5t9.5 39q0 18 -7.5 35.5t-22.5 32
t-37.5 23.5t-52.5 9q-31 0 -53 -9t-36.5 -23.5t-21 -32.5t-6.5 -36q0 -39 30 -68.5t91 -29.5z" />
    <glyph glyph-name="tilde" unicode="&#x2dc;" horiz-adv-x="847" 
d="M98 1206l-4 199q27 32 71.5 56t113.5 24q41 0 71 -8t54.5 -20t45.5 -26.5t44.5 -26.5t52 -20t66.5 -8q57 0 96.5 19.5t59.5 64.5l2 -2l-10 -216q-17 -30 -61 -49.5t-101 -19.5q-39 0 -68.5 8t-54.5 20t-46.5 25.5t-45.5 25.5t-51.5 20t-63.5 8q-59 0 -97.5 -21.5
t-69.5 -53.5z" />
    <glyph glyph-name="endash" unicode="&#x2013;" horiz-adv-x="1064" 
d="M140 742q15 -4 45 -5t87 -1h519q57 0 87 1t45 5l3 -247q-29 3 -60.5 4t-63.5 1h-541q-32 0 -63.5 -1t-60.5 -4z" />
    <glyph glyph-name="emdash" unicode="&#x2014;" horiz-adv-x="1239" 
d="M143 742q15 -4 45 -5t87 -1h681q57 0 87 1t45 5l3 -247q-29 3 -60.5 4t-63.5 1h-703q-32 0 -63.5 -1t-60.5 -4z" />
    <glyph glyph-name="quoteleft" unicode="&#x2018;" horiz-adv-x="530" 
d="M146 913q-6 57 -8.5 96t-2.5 62q0 54 3.5 104t10 90t15.5 66.5t20 33.5t29.5 15t46 16.5t67 18t92.5 20.5l6 -6q-8 -12 -14.5 -42t-11 -71t-7.5 -89t-3 -97q0 -39 1 -82.5t5 -94.5z" />
    <glyph glyph-name="quoteright" unicode="&#x2019;" horiz-adv-x="530" 
d="M105 929q7 13 13.5 43t11.5 70.5t8 88.5t3 97q0 39 -1 82.5t-5 94.5l249 40q6 -57 8.5 -96t2.5 -62q0 -54 -3.5 -104t-10 -90t-15.5 -66.5t-20 -33.5t-29.5 -15t-46 -16.5t-67 -18t-92.5 -20.5z" />
    <glyph glyph-name="quotesinglbase" unicode="&#x201a;" horiz-adv-x="530" 
d="M141 3q0 39 -1 82.5t-5 94.5l249 40q6 -57 8.5 -96t2.5 -62q0 -54 -3.5 -104t-10 -90t-15.5 -66.5t-20 -33.5t-29.5 -15t-46 -16.5t-67 -18t-92.5 -20.5l-6 6q7 13 13.5 43t11.5 70.5t8 88.5t3 97z" />
    <glyph glyph-name="quotedblleft" unicode="&#x201c;" horiz-adv-x="910" 
d="M596 913q-6 57 -8.5 96t-2.5 62q0 54 3.5 104t10 90t15.5 66.5t20 33.5t29.5 15t46 16.5t67 18t92.5 20.5l6 -6q-8 -12 -14.5 -42t-11 -71t-7.5 -89t-3 -97q0 -39 1 -82.5t5 -94.5zM146 913q-6 57 -8.5 96t-2.5 62q0 54 3.5 104t10 90t15.5 66.5t20 33.5t29.5 15t46 16.5
t67 18t92.5 20.5l6 -6q-8 -12 -14.5 -42t-11 -71t-7.5 -89t-3 -97q0 -39 1 -82.5t5 -94.5z" />
    <glyph glyph-name="quotedblright" unicode="&#x201d;" horiz-adv-x="890" 
d="M541 929q7 13 13.5 43t11.5 70.5t8 88.5t3 97q0 39 -1 82.5t-5 94.5l249 40q6 -57 8.5 -96t2.5 -62q0 -54 -3.5 -104t-10 -90t-15.5 -66.5t-20 -33.5t-29.5 -15t-46 -16.5t-67 -18t-92.5 -20.5zM111 929q7 13 13.5 43t11.5 70.5t8 88.5t3 97q0 39 -1 82.5t-5 94.5l249 40
q6 -57 8.5 -96t2.5 -62q0 -54 -3.5 -104t-10 -90t-15.5 -66.5t-20 -33.5t-29.5 -15t-46 -16.5t-67 -18t-92.5 -20.5z" />
    <glyph glyph-name="quotedblbase" unicode="&#x201e;" horiz-adv-x="860" 
d="M547 3q0 39 -1 82.5t-5 94.5l249 40q6 -57 8.5 -96t2.5 -62q0 -54 -3.5 -104t-10 -90t-15.5 -66.5t-20 -33.5t-29.5 -15t-46 -16.5t-67 -18t-92.5 -20.5l-6 6q7 13 13.5 43t11.5 70.5t8 88.5t3 97zM147 3q0 39 -1 82.5t-5 94.5l249 40q6 -57 8.5 -96t2.5 -62
q0 -54 -3.5 -104t-10 -90t-15.5 -66.5t-20 -33.5t-29.5 -15t-46 -16.5t-67 -18t-92.5 -20.5l-6 6q7 13 13.5 43t11.5 70.5t8 88.5t3 97z" />
    <glyph glyph-name="bullet" unicode="&#x2022;" horiz-adv-x="836" 
d="M422 479q-55 0 -104 16.5t-86.5 47t-59.5 73t-22 95.5q0 45 18.5 87.5t53 75t83.5 52t109 19.5q61 0 111.5 -20t86 -53t55 -74.5t19.5 -84.5q0 -55 -21.5 -98.5t-57.5 -73.5t-84 -46t-101 -16z" />
    <glyph glyph-name="guilsinglleft" unicode="&#x2039;" horiz-adv-x="690" 
d="M128 449q-17 30 -23 48.5t-5 30.5q0 8 4.5 24t18.5 43l171 320h255l-200 -388l206 -387h-255z" />
    <glyph glyph-name="guilsinglright" unicode="&#x203a;" horiz-adv-x="690" 
d="M290 527l-199 388h255l171 -320q14 -27 18.5 -43t4.5 -24q0 -12 -5.5 -30.5t-22.5 -48.5l-172 -309h-255z" />
    <glyph glyph-name="Euro" unicode="&#x20ac;" horiz-adv-x="1427" 
d="M141 636h70v13q0 23 1.5 45.5t3.5 45.5h-135l63 196h122q41 97 109 175t156.5 132t194 83t222.5 29q108 0 190.5 -22t145.5 -53l-70 -258h-4q-42 43 -111.5 68t-156.5 25q-133 0 -232.5 -47.5t-160.5 -131.5h401q57 0 87 1t45 5l-57 -207q-29 3 -60.5 4t-63.5 1h-430
q-3 -18 -4 -36t-1 -37v-15.5t1 -15.5h402q57 0 87 1t45 5l-67 -207q-29 3 -60.5 4t-63.5 1h-296q31 -62 77 -105t99.5 -69.5t111 -38.5t111.5 -12q55 0 111.5 12.5t108 36.5t95.5 58t74 77l3 -2v-285q-76 -63 -182 -100t-238 -37q-127 0 -233.5 33t-189 94t-140 147
t-85.5 191h-157z" />
    <glyph glyph-name="commaaccent" horiz-adv-x="440" 
d="M376 -91q4 -28 7 -51t5 -44t3 -41t1 -42q0 -49 -6 -94.5t-16.5 -82.5t-24 -62.5t-27.5 -34.5q-11 -7 -29.5 -15t-46 -16.5t-67 -18t-92.5 -20.5l-6 6q9 16 19.5 46t20 69.5t15.5 86.5t6 97q0 39 -2 82.5t-9 94.5z" />
    <glyph glyph-name="caron.cap" horiz-adv-x="900" 
d="M75 1516l3 3q32 -2 101 -2.5t162 -0.5l97 -177l113 177q36 0 75 0.5t74 1t63 1t43 0.5l4 -3l-255 -331q-6 0 -22.5 0.5t-36 1t-37 1t-25.5 0.5h-25.5t-34.5 -0.5t-34 -1t-23 -1.5z" />
    <glyph glyph-name="foundryicon" 
 />
  </font>
</defs>
</svg>
