<?xml version="1.0" standalone="no"?>
<!DOCTYPE svg PUBLIC "-//W3C//DTD SVG 1.1//EN" "http://www.w3.org/Graphics/SVG/1.1/DTD/svg11.dtd" >
<svg xmlns="http://www.w3.org/2000/svg" xmlns:xlink="http://www.w3.org/1999/xlink" version="1.1">
<metadata>
Created by FontForge 20170731 at Thu Jul 16 13:59:23 2009
 By Aleksey,,,
Copyright (c) 2009 by Eduardo Manso. All rights reserved.
</metadata>
<defs>
<font id="Geogrotesque-Medium" horiz-adv-x="237" >
  <font-face 
    font-family="Geogrotesque Md"
    font-weight="500"
    font-stretch="normal"
    units-per-em="1000"
    panose-1="2 0 0 0 0 0 0 0 0 0"
    ascent="750"
    descent="-250"
    x-height="496"
    cap-height="680"
    bbox="-59 -238.562 1416 964"
    underline-thickness="50"
    underline-position="-150"
    unicode-range="U+0020-FB04"
  />
<missing-glyph horiz-adv-x="854" 
d="M674 94q-104 -102 -249 -102q-144 0 -246 102q-103 101 -103 247q0 144 103 247q102 102 246 102q147 0 249 -102q103 -103 103 -247t-103 -247zM662 106q99 99 99 235t-99 235q-98 98 -237 98q-136 0 -234 -98q-99 -99 -99 -235q0 -138 99 -235q98 -98 234 -98
q139 0 237 98zM537 177l-110 110l-110 -110q-13 -13 -27 1l-29 29q-13 13 0 26l110 110l-110 110q-14 14 -1 27l29 29q14 14 28 0l110 -111l111 111q14 13 26 1l29 -29q14 -14 0 -28l-111 -110l111 -111q13 -13 -1 -27l-29 -29q-13 -12 -26 1z" />
    <glyph glyph-name="ff" unicode="ff" horiz-adv-x="639" 
d="M102 494h6v72q0 64 48.5 100.5t150.5 36.5h7q19 0 19 -19v-42q0 -20 -19 -20h-7q-103 0 -103 -66v-62h203v77q0 137 199 137h7q19 0 19 -19v-42q0 -20 -19 -20h-7q-103 0 -103 -66v-67h98q19 0 19 -18v-40q0 -20 -19 -20h-98v-396q0 -20 -19 -20h-58q-19 0 -19 20v396
h-203v-396q0 -20 -18 -20h-59q-19 0 -19 20v396h-59q-18 0 -18 20v35q0 18 18 19z" />
    <glyph glyph-name="fi" unicode="fi" horiz-adv-x="567" 
d="M496 475v-455q0 -20 -18 -20h-58q-19 0 -19 20v396h-204v-396q0 -20 -18 -20h-59q-18 0 -18 20v396h-59q-19 0 -19 20v35q0 18 19 19l52 4h7v68q0 137 198 137h163q19 0 19 -19v-42q0 -20 -19 -20h-163q-103 0 -103 -66v-58h280q19 0 19 -19z" />
    <glyph glyph-name="fl" unicode="fl" horiz-adv-x="567" 
d="M496 680v-660q0 -20 -18 -20h-58q-19 0 -19 20v598h-101q-103 0 -103 -66v-58h98q19 0 19 -18v-40q0 -20 -19 -20h-98v-396q0 -20 -18 -20h-59q-18 0 -18 20v396h-59q-19 0 -19 20v35q0 18 19 19l52 4h7v68q0 137 198 137h177q19 0 19 -19z" />
    <glyph glyph-name="ffi" unicode="ffi" horiz-adv-x="873" 
d="M102 494h6v72q0 64 48.5 100.5t150.5 36.5h7q19 0 19 -19v-42q0 -20 -19 -20h-7q-103 0 -103 -66v-62h204v68q0 137 198 137h163q20 0 20 -19v-42q0 -20 -20 -20h-163q-103 0 -103 -66v-58h280q20 0 20 -19v-455q0 -20 -18 -20h-59q-19 0 -19 20v396h-204v-396
q0 -20 -18 -20h-58q-19 0 -19 20v396h-204v-396q0 -20 -18 -20h-59q-19 0 -19 20v396h-59q-18 0 -18 20v35q0 18 18 19z" />
    <glyph glyph-name="ffl" unicode="ffl" horiz-adv-x="873" 
d="M102 494h7v72q0 137 198 137h7q20 0 20 -19v-42q0 -20 -20 -20h-7q-103 0 -103 -66v-62h204v68q0 137 199 137h176q20 0 20 -19v-660q0 -20 -18 -20h-58q-19 0 -19 20v598h-101q-103 0 -103 -66v-58h98q19 0 19 -18v-40q0 -20 -19 -20h-98v-396q0 -20 -19 -20h-58
q-19 0 -19 20v396h-204v-396q0 -20 -18 -20h-58q-19 0 -19 20v396h-59q-19 0 -19 20v35q0 18 19 19z" />
    <glyph glyph-name=".notdef" horiz-adv-x="854" 
d="M674 94q-104 -102 -249 -102q-144 0 -246 102q-103 101 -103 247q0 144 103 247q102 102 246 102q147 0 249 -102q103 -103 103 -247t-103 -247zM662 106q99 99 99 235t-99 235q-98 98 -237 98q-136 0 -234 -98q-99 -99 -99 -235q0 -138 99 -235q98 -98 234 -98
q139 0 237 98zM537 177l-110 110l-110 -110q-13 -13 -27 1l-29 29q-13 13 0 26l110 110l-110 110q-14 14 -1 27l29 29q14 14 28 0l110 -111l111 111q14 13 26 1l29 -29q14 -14 0 -28l-111 -110l111 -111q13 -13 -1 -27l-29 -29q-13 -12 -26 1z" />
    <glyph glyph-name=".null" horiz-adv-x="0" 
 />
    <glyph glyph-name="nonmarkingreturn" horiz-adv-x="333" 
 />
    <glyph glyph-name="space" unicode=" " horiz-adv-x="211" 
 />
    <glyph glyph-name="exclam" unicode="!" horiz-adv-x="264" 
d="M181 390l-9 -200q-1 -19 -18 -19h-44q-17 0 -18 19l-10 200v270q0 20 19 20h62q18 0 18 -20v-270zM180 99v-80q0 -19 -18 -19h-61q-19 0 -19 19v80q0 19 19 19h61q18 0 18 -19z" />
    <glyph glyph-name="quotedbl" unicode="&#x22;" horiz-adv-x="392" 
d="M157 493q0 -20 -18 -20h-41q-18 0 -19 20l-8 167q-1 20 19 20h57q19 0 18 -20zM313 493q0 -20 -19 -20h-41q-17 0 -18 20l-8 167q-1 20 18 20h57q20 0 19 -20z" />
    <glyph glyph-name="numbersign" unicode="#" horiz-adv-x="663" 
d="M95 271h76l27 94h-59q-19 0 -19 19v32q0 18 19 18h78l25 88q5 20 24 20h42q19 0 14 -20l-25 -88h140l25 88q5 20 23 20h42q19 0 14 -20l-25 -88h52q19 0 19 -18v-32q0 -19 -19 -19h-72l-26 -94h54q19 0 19 -18v-32q0 -19 -19 -19h-74l-24 -87q-6 -20 -23 -20h-43
q-20 0 -14 20l25 87h-140l-25 -87q-6 -20 -23 -20h-42q-20 0 -14 20l25 87h-57q-19 0 -19 19v32q0 18 19 18zM277 365l-27 -94h140l27 94h-140z" />
    <glyph glyph-name="dollar" unicode="$" horiz-adv-x="532" 
d="M361 449v24q0 53 -95 53q-93 0 -93 -53v-17q0 -32 42 -46l150 -52q90 -31 90 -98v-56q0 -43 -34.5 -75.5t-103.5 -41.5v-67q0 -20 -18 -20h-59q-19 0 -19 20v66q-74 8 -109.5 40.5t-35.5 77.5v25q0 18 17 18h53q17 0 17 -18v-21q0 -53 102 -53t102 53v27q0 30 -53 48
l-150 52q-31 11 -54.5 38.5t-23.5 62.5v37q0 45 32.5 78.5t102.5 41.5v67q0 20 19 20h59q18 0 18 -20v-67q67 -10 99 -43t32 -77v-24q0 -18 -18 -18h-52q-17 0 -17 18z" />
    <glyph glyph-name="percent" unicode="%" horiz-adv-x="815" 
d="M76 481v104q0 102 144 102t144 -102v-104q0 -103 -144 -103t-144 103zM285 484v98q0 41 -65 41t-65 -41v-98q0 -41 65 -41t65 41zM660 97v98q0 40 -65 40t-65 -40v-98q0 -42 65 -42t65 42zM451 93v104q0 103 144 103t144 -103v-104q0 -102 -144 -102t-144 102zM607 660
l-310 -640q-10 -20 -27 -20h-50q-8 0 -10.5 7t1.5 13l311 640q9 20 27 20h49q9 0 11.5 -6t-2.5 -14z" />
    <glyph glyph-name="ampersand" unicode="&#x26;" horiz-adv-x="682" 
d="M297 396h328q19 0 19 -19v-43q0 -19 -19 -19h-68v-170q0 -69 -56 -111t-185 -42q-240 0 -240 150v101q0 90 89 115q-45 13 -63 39t-18 69v72q0 150 208 150q210 0 210 -153v-26q0 -19 -18 -19h-59q-18 0 -18 19v13q0 43 -26 64t-88 21t-87.5 -21t-25.5 -64v-42
q0 -43 26 -63.5t91 -20.5zM317 73q145 0 145 85v157h-173q-64 0 -90.5 -20.5t-26.5 -63.5v-73q0 -85 145 -85z" />
    <glyph glyph-name="quotesingle" unicode="'" horiz-adv-x="236" 
d="M165 660l-8 -167q-1 -20 -18 -20h-41q-18 0 -19 20l-8 167q-1 20 19 20h57q19 0 18 -20z" />
    <glyph glyph-name="parenleft" unicode="(" horiz-adv-x="355" 
d="M76 -81v652q0 137 198 137h8q19 0 19 -19v-42q0 -20 -19 -20h-8q-54 0 -77 -16.5t-23 -49.5v-632q0 -33 23 -49.5t77 -16.5h8q19 0 19 -20v-42q0 -19 -19 -19h-8q-198 0 -198 137z" />
    <glyph glyph-name="parenright" unicode=")" horiz-adv-x="355" 
d="M278 571v-652q0 -137 -198 -137h-7q-19 0 -19 19v42q0 20 19 20h7q54 0 77 16.5t23 49.5v632q0 33 -23 49.5t-77 16.5h-7q-19 0 -19 20v42q0 19 19 19h7q198 0 198 -137z" />
    <glyph glyph-name="asterisk" unicode="*" horiz-adv-x="523" 
d="M247 322q-19 0 -18 20l6 125l-109 -71q-16 -10 -26 8l-14 27q-9 18 8 26l109 55l-109 57q-16 9 -8 25l14 28q9 18 26 7l110 -71l-7 132q-1 19 19 19h30q19 0 18 -19l-7 -131l108 70q17 11 26 -7l14 -28q9 -16 -8 -25l-109 -57l109 -55q17 -9 8 -26l-14 -28q-9 -18 -26 -7
l-107 69l6 -123q1 -20 -18 -20h-31z" />
    <glyph glyph-name="plus" unicode="+" horiz-adv-x="571" 
d="M245 143v155h-155q-19 0 -19 19v43q0 19 19 19h155v155q0 20 18 20h42q19 0 19 -20v-155h157q19 0 19 -19v-43q0 -19 -19 -19h-157v-155q0 -19 -19 -19h-42q-18 0 -18 19z" />
    <glyph glyph-name="comma" unicode="," horiz-adv-x="232" 
d="M68 35v64q0 19 18 19h61q18 0 18 -19v-69q0 -100 -119 -133q-18 -4 -24 12l-14 41q-7 18 12 24q48 19 48 61z" />
    <glyph glyph-name="hyphen" unicode="-" horiz-adv-x="448" 
d="M90 328h268q19 0 19 -18v-42q0 -18 -19 -18h-268q-19 0 -19 18v42q0 18 19 18z" />
    <glyph glyph-name="period" unicode="." horiz-adv-x="233" 
d="M165 99v-80q0 -19 -18 -19h-60q-19 0 -19 19v80q0 19 19 19h60q18 0 18 -19z" />
    <glyph glyph-name="slash" unicode="/" horiz-adv-x="368" 
d="M339 679l-208 -807q-6 -20 -23 -20h-64q-20 0 -15 20l209 807q5 20 22 20h65q19 0 14 -20z" />
    <glyph glyph-name="zero" unicode="0" horiz-adv-x="550" 
d="M58 146v388q0 69 50.5 111.5t166.5 42.5q117 0 167.5 -42.5t50.5 -111.5v-388q0 -69 -50.5 -111.5t-167.5 -42.5q-116 0 -166.5 42.5t-50.5 111.5zM395 162v356q0 87 -120 87q-64 0 -91.5 -22t-27.5 -65v-356q0 -43 27.5 -65t91.5 -22q120 0 120 87z" />
    <glyph glyph-name="one" unicode="1" horiz-adv-x="550" 
d="M90 636l229 49q7 2 12.5 -2t5.5 -16v-584h147q19 0 19 -18v-46q0 -19 -19 -19h-395q-19 0 -19 19v46q0 18 19 18h150v495l-149 -29q-19 -3 -19 16v49q0 17 19 22z" />
    <glyph glyph-name="two" unicode="2" horiz-adv-x="550" 
d="M173 83h304q19 0 19 -18v-46q0 -19 -19 -19h-383q-19 0 -19 19v190q0 21 7 37t20.5 26.5t23.5 15.5t25 11l194 72q51 19 51 65v83q0 43 -27.5 65t-91.5 22t-91 -22t-27 -65v-43q0 -20 -18 -20h-58q-19 0 -19 20v58q0 154 213 154q216 0 216 -154v-96q0 -102 -92 -136
l-170 -61q-17 -6 -27.5 -11.5t-20.5 -18.5t-10 -32v-96z" />
    <glyph glyph-name="three" unicode="3" horiz-adv-x="550" 
d="M189 396h77q64 0 90 20.5t26 63.5v42q0 43 -25 64t-87 21q-63 0 -88.5 -21t-25.5 -64v-13q0 -19 -19 -19h-58q-18 0 -18 19v26q0 153 210 153q208 0 208 -150v-72q0 -43 -18 -69t-64 -39q89 -25 89 -115v-101q0 -150 -214 -150q-216 0 -216 153v26q0 19 18 19h59
q18 0 18 -19v-13q0 -85 120 -85q119 0 119 85v73q0 43 -26 63.5t-91 20.5h-84q-19 0 -19 19v43q0 19 19 19z" />
    <glyph glyph-name="four" unicode="4" horiz-adv-x="550" 
d="M271 660l-129 -375h235v375q0 20 19 20h61q18 0 18 -20v-640q0 -20 -18 -20h-61q-19 0 -19 20v182h-317q-19 0 -19 19v40q0 9 5 26l127 373q6 20 23 20h61q21 0 14 -20z" />
    <glyph glyph-name="five" unicode="5" horiz-adv-x="550" 
d="M103 680h347q20 0 20 -19v-45q0 -19 -20 -19h-267v-172h91q108 0 161 -39.5t53 -105.5v-136q0 -153 -212 -153t-212 153v26q0 20 19 20h58q19 0 19 -20v-12q0 -43 26 -64.5t89 -21.5q64 0 89.5 21t25.5 65v108q0 78 -117 78h-170q-18 0 -18 20v296q0 20 18 20z" />
    <glyph glyph-name="six" unicode="6" horiz-adv-x="550" 
d="M64 146v392q0 65 48 107.5t163 42.5q208 0 208 -150v-22q0 -19 -19 -19h-58q-18 0 -18 19v8q0 83 -113 83q-114 0 -114 -83v-156q39 42 128 42q107 0 154 -42.5t47 -111.5v-110q0 -154 -213 -154t-213 154zM393 159v83q0 44 -26 65.5t-90 21.5q-116 0 -116 -79v-91
q0 -43 26 -64.5t90 -21.5t90 21.5t26 64.5z" />
    <glyph glyph-name="seven" unicode="7" horiz-adv-x="550" 
d="M68 680h420q19 0 19 -19v-40q0 -11 -4 -20l-250 -581q-9 -20 -24 -20h-70q-22 0 -13 20l250 577h-328q-20 0 -20 19v45q0 19 20 19z" />
    <glyph glyph-name="eight" unicode="8" horiz-adv-x="550" 
d="M72 469v65q0 71 44 112.5t159 41.5t159 -41.5t44 -112.5v-65q0 -86 -84 -111q93 -26 93 -112v-100q0 -154 -212 -154t-212 154v100q0 86 93 112q-84 25 -84 111zM391 159v72q0 43 -26 64.5t-90 21.5t-89.5 -21t-25.5 -65v-72q0 -43 25.5 -64.5t89.5 -21.5t90 21.5
t26 64.5zM383 484v37q0 44 -23 65t-85 21t-84.5 -21t-22.5 -65v-37q0 -45 22.5 -66t84.5 -21t85 21.5t23 65.5z" />
    <glyph glyph-name="nine" unicode="9" horiz-adv-x="550" 
d="M486 534v-392q0 -65 -47.5 -107.5t-162.5 -42.5q-208 0 -208 150v22q0 19 19 19h58q18 0 18 -19v-8q0 -40 25 -61.5t88 -21.5q62 0 87.5 21.5t25.5 61.5v155q-38 -41 -128 -41q-106 0 -153.5 43t-47.5 111v110q0 154 214 154q212 0 212 -154zM389 434v87q0 43 -26 64.5
t-89 21.5q-64 0 -90.5 -21.5t-26.5 -64.5v-83q0 -44 26.5 -65.5t90.5 -21.5q62 0 88.5 21t26.5 62z" />
    <glyph glyph-name="colon" unicode=":" horiz-adv-x="233" 
d="M165 99v-80q0 -19 -18 -19h-60q-19 0 -19 19v80q0 19 19 19h60q18 0 18 -19zM165 476v-80q0 -19 -18 -19h-60q-19 0 -19 19v80q0 20 19 20h60q18 0 18 -20z" />
    <glyph glyph-name="semicolon" unicode=";" horiz-adv-x="278" 
d="M211 476v-80q0 -19 -18 -19h-60q-19 0 -19 19v80q0 20 19 20h60q18 0 18 -20zM114 35v64q0 19 19 19h60q18 0 18 -19v-69q0 -100 -119 -133q-18 -4 -24 12l-14 41q-7 18 12 24q27 11 37.5 25t10.5 36z" />
    <glyph glyph-name="less" unicode="&#x3c;" horiz-adv-x="532" 
d="M442 455l-278 -116l278 -114q19 -8 19 -22v-56q0 -11 -5 -16t-14 -1l-354 156q-17 8 -17 21v65q0 14 17 21l354 157q9 4 14 -1.5t5 -16.5v-56q0 -9 -4 -13t-15 -8z" />
    <glyph glyph-name="equal" unicode="=" horiz-adv-x="585" 
d="M90 462h405q19 0 19 -18v-43q0 -19 -19 -19h-405q-19 0 -19 19v43q0 18 19 18zM90 272h405q19 0 19 -18v-43q0 -19 -19 -19h-405q-19 0 -19 19v43q0 18 19 18z" />
    <glyph glyph-name="greater" unicode="&#x3e;" horiz-adv-x="532" 
d="M368 339l-278 114q-19 8 -19 22v58q0 11 5 16.5t14 1.5l354 -157q17 -7 17 -21v-67q0 -14 -17 -21l-354 -157q-9 -4 -14 1.5t-5 16.5v58q0 10 4 14t15 8z" />
    <glyph glyph-name="question" unicode="?" horiz-adv-x="566" 
d="M215 190v74q0 61 64 93l80 41q45 25 45 70v51q0 87 -122 87t-122 -87v-43q0 -20 -18 -20h-58q-19 0 -19 20v58q0 69 50.5 111.5t166.5 42.5q217 0 219 -154v-63q0 -99 -87 -141l-55 -26q-46 -22 -46 -64v-50q0 -19 -18 -19h-62q-18 0 -18 19zM313 99v-80q0 -19 -18 -19
h-62q-18 0 -18 19v80q0 19 18 19h62q18 0 18 -19z" />
    <glyph glyph-name="at" unicode="@" horiz-adv-x="895" 
d="M628 -134h-180q-90 0 -157 11t-106 29t-63 45t-32 53.5t-8 59.5v375q0 33 8 59.5t32 53t63 44.5t106 29t157 11t156.5 -11t106 -29t63.5 -44.5t32 -53t8 -59.5v-262q0 -144 -154 -144q-98 0 -127 63q-74 -63 -160 -63q-120 0 -120 113q0 15 1 23l15 153q13 136 138 136
q69 0 139 -53l4 26q3 19 21 19h51q17 0 16 -19l-24 -236q-9 -91 52 -91q55 0 55 86v245q0 40 -21.5 65.5t-83 41.5t-168.5 16q-156 0 -215 -31t-59 -92v-367q0 -61 59 -92t215 -31h180q19 0 19 -19v-41q0 -19 -19 -19zM360 304l-11 -111q-1 -9 -1 -20q0 -51 64 -51
q45 0 107 37v11l17 160q-54 43 -101 43q-69 0 -75 -69z" />
    <glyph glyph-name="A" unicode="A" horiz-adv-x="538" 
d="M238 680h62q18 0 24 -19l194 -642q6 -19 -15 -19h-63q-17 0 -22 19l-47 155h-211l-46 -155q-5 -19 -22 -19h-58q-20 0 -14 19l194 642q6 19 24 19zM350 252l-56 182q-8 24 -17 77t-10 69q0 -1 -4.5 -29.5t-11 -62t-12.5 -52.5l-57 -184h168z" />
    <glyph glyph-name="B" unicode="B" horiz-adv-x="587" 
d="M306 0h-206q-18 0 -18 20v640q0 20 18 20h177q227 0 227 -145v-63q0 -83 -84 -115q113 -31 113 -122v-85q0 -150 -227 -150zM306 311h-127v-230h127q130 0 130 86v61q0 83 -130 83zM277 599h-98v-212h105q123 0 123 87v46q0 41 -31 60t-99 19z" />
    <glyph glyph-name="C" unicode="C" horiz-adv-x="559" 
d="M513 209v-63q0 -154 -221 -154t-221 154v388q0 154 221 154t221 -154v-49q0 -20 -18 -20h-58q-19 0 -19 20v33q0 87 -125 87q-124 0 -124 -87v-356q0 -87 124 -87q125 0 125 87v47q0 19 19 19h58q18 0 18 -19z" />
    <glyph glyph-name="D" unicode="D" horiz-adv-x="608" 
d="M309 0h-211q-16 0 -16 20v640q0 20 18 20h209q120 0 174 -43t54 -111v-372q0 -68 -54 -111t-174 -43zM309 597h-130v-514h130q130 0 130 87v340q0 87 -130 87z" />
    <glyph glyph-name="E" unicode="E" horiz-adv-x="519" 
d="M453 0h-353q-18 0 -18 20v640q0 20 18 20h342q19 0 19 -19v-45q0 -19 -19 -19h-263v-202h245q20 0 20 -19v-43q0 -19 -20 -19h-245v-231h274q19 0 19 -18v-46q0 -19 -19 -19z" />
    <glyph glyph-name="F" unicode="F" horiz-adv-x="524" 
d="M100 680h367q19 0 19 -19v-45q0 -19 -19 -19h-288v-203h270q19 0 19 -19v-46q0 -19 -19 -19h-270v-290q0 -20 -18 -20h-61q-18 0 -18 20v640q0 20 18 20z" />
    <glyph glyph-name="G" unicode="G" horiz-adv-x="573" 
d="M299 340h195q19 0 19 -18v-176q0 -154 -221 -154t-221 154v388q0 154 221 154t221 -154v-44q0 -19 -18 -19h-58q-19 0 -19 19v28q0 87 -125 87q-124 0 -124 -87v-356q0 -87 124 -87q125 0 125 86v96h-119q-19 0 -19 19v46q0 18 19 18z" />
    <glyph glyph-name="H" unicode="H" horiz-adv-x="619" 
d="M179 660v-263h260v263q0 20 18 20h62q18 0 18 -20v-640q0 -20 -18 -20h-62q-18 0 -18 20v294h-260v-294q0 -20 -18 -20h-61q-18 0 -18 20v640q0 20 18 20h61q18 0 18 -20z" />
    <glyph glyph-name="I" unicode="I" horiz-adv-x="261" 
d="M179 660v-640q0 -20 -18 -20h-61q-18 0 -18 20v640q0 20 18 20h61q18 0 18 -20z" />
    <glyph glyph-name="J" unicode="J" horiz-adv-x="504" 
d="M120 197v-35q0 -43 24.5 -65t82.5 -22q57 0 80 22t23 65v498q0 20 18 20h61q19 0 19 -20v-514q0 -154 -201 -154q-203 0 -203 154v51q0 20 19 20h59q18 0 18 -20z" />
    <glyph glyph-name="K" unicode="K" horiz-adv-x="564" 
d="M287 345l259 -326q6 -7 3 -13t-12 -6h-79q-16 0 -29 19l-224 283h-25v-283q0 -19 -19 -19h-61q-18 0 -18 19v642q0 19 18 19h61q19 0 19 -19v-286h24l209 286q15 19 31 19h66q10 0 12 -6t-3 -13z" />
    <glyph glyph-name="L" unicode="L" horiz-adv-x="485" 
d="M180 660v-577h256q19 0 19 -18v-46q0 -19 -19 -19h-338q-16 0 -16 20v640q0 20 19 20h61q18 0 18 -20z" />
    <glyph glyph-name="M" unicode="M" horiz-adv-x="734" 
d="M653 661v-642q0 -19 -18 -19h-59q-18 0 -18 19v459q0 -1 -9.5 -30.5t-14.5 -43.5l-116 -281q-8 -20 -25 -20h-52q-16 0 -24 20l-124 293q-3 8 -7 18.5t-6 18.5t-4 15l-2 8v-457q0 -19 -18 -19h-56q-18 0 -18 19v642q0 19 18 19h56q12 0 17 -11l173 -402q15 -37 21 -60
q4 14 22 59l170 405q4 9 17 9h59q18 0 18 -19z" />
    <glyph glyph-name="N" unicode="N" horiz-adv-x="618" 
d="M536 661v-642q0 -19 -18 -19h-55q-12 0 -18 9l-235 412q-8 13 -15 26.5t-10.5 22t-6.5 16.5l-4 7v-474q0 -19 -18 -19h-56q-18 0 -18 19v642q0 19 18 19h56q11 0 16 -8l241 -421l31 -64v474q0 19 19 19h55q18 0 18 -19z" />
    <glyph glyph-name="O" unicode="O" horiz-adv-x="597" 
d="M71 146v388q0 68 53.5 111t173.5 43t174 -43t54 -111v-388q0 -68 -54 -111t-174 -43t-173.5 43t-53.5 111zM428 162v356q0 87 -130 87q-129 0 -129 -87v-356q0 -87 129 -87q130 0 130 87z" />
    <glyph glyph-name="P" unicode="P" horiz-adv-x="572" 
d="M303 253h-124v-233q0 -20 -18 -20h-61q-18 0 -18 20v640q0 20 18 20h203q120 0 173.5 -43t53.5 -111v-119q0 -68 -53.5 -111t-173.5 -43zM303 597h-124v-261h124q130 0 130 87v87q0 87 -130 87z" />
    <glyph glyph-name="Q" unicode="Q" horiz-adv-x="596" 
d="M526 534v-388q0 -120 -145 -147l123 -110q15 -14 2 -27l-31 -34q-12 -14 -26 -1l-179 166q-105 5 -152 46.5t-47 106.5v388q0 68 53.5 111t173.5 43t174 -43t54 -111zM169 520v-360q0 -87 129 -87q130 0 130 87v360q0 87 -130 87q-129 0 -129 -87z" />
    <glyph glyph-name="R" unicode="R" horiz-adv-x="594" 
d="M303 269h-124v-249q0 -20 -18 -20h-61q-18 0 -18 20v640q0 20 18 20h203q120 0 173.5 -43t53.5 -111v-104q0 -107 -117 -140l120 -262q4 -9 -1.5 -14.5t-16.5 -5.5h-60q-12 0 -20 16q-1 3 -2 4l-113 249h-17zM303 597h-124v-245h124q130 0 130 87v71q0 87 -130 87z" />
    <glyph glyph-name="S" unicode="S" horiz-adv-x="568" 
d="M410 490v31q0 85 -121 85t-121 -85v-20q0 -48 51 -67l182 -69q110 -42 110 -136v-83q0 -68 -53.5 -111t-170.5 -43t-171 43t-54 111v58q0 20 19 20h59q18 0 18 -20v-45q0 -85 128 -85q129 0 129 85v47q0 23 -14.5 40.5t-28.5 24.5t-41 17l-169 65q-36 14 -62.5 47
t-26.5 77v57q0 68 50.5 111t164.5 43t165.5 -43t51.5 -111v-44q0 -19 -18 -19h-59q-18 0 -18 19z" />
    <glyph glyph-name="T" unicode="T" horiz-adv-x="487" 
d="M34 680h418q19 0 19 -19v-45q0 -19 -19 -19h-160v-577q0 -20 -18 -20h-62q-18 0 -18 20v577h-160q-19 0 -19 19v45q0 19 19 19z" />
    <glyph glyph-name="U" unicode="U" horiz-adv-x="607" 
d="M174 660v-498q0 -87 129 -87q131 0 131 87v498q0 20 18 20h61q18 0 18 -20v-514q0 -68 -54 -111t-174 -43t-173.5 43t-53.5 111v514q0 20 19 20h61q18 0 18 -20z" />
    <glyph glyph-name="V" unicode="V" horiz-adv-x="538" 
d="M300 0h-62q-18 0 -24 19l-194 642q-6 19 14 19h67q16 0 22 -19l124 -415q6 -19 11.5 -49.5t8.5 -51.5l3 -21q14 84 25 120l125 417q6 19 22 19h61q21 0 15 -19l-194 -642q-6 -19 -24 -19z" />
    <glyph glyph-name="W" unicode="W" horiz-adv-x="817" 
d="M464 661l104 -416q4 -18 8 -38t6 -35l2 -14q0 1 2 11.5t4 23t5 27.5t6 25l106 416q5 19 22 19h54q18 0 14 -19l-162 -642q-4 -19 -24 -19h-60q-17 0 -22 19l-107 424q-4 14 -13 78q-7 -51 -14 -79l-108 -423q-4 -19 -23 -19h-60q-17 0 -22 19l-163 642q-4 19 15 19h62
q18 0 23 -19l104 -416l16 -78q5 32 17 78l106 416q5 19 22 19h57q18 0 23 -19z" />
    <glyph glyph-name="X" unicode="X" horiz-adv-x="561" 
d="M333 347l192 -328q4 -7 2 -13t-12 -6h-71q-17 0 -28 19l-143 242l-135 -242q-11 -19 -27 -19h-66q-9 0 -11.5 7t2.5 15l187 327l-181 310q-13 21 8 21h71q16 0 28 -19l136 -231l129 231q10 19 27 19h66q19 0 9 -19z" />
    <glyph glyph-name="Y" unicode="Y" horiz-adv-x="529" 
d="M124 661l125 -264q11 -27 16 -45q0 2 5.5 19t10.5 26l133 264q10 19 22 19h61q23 0 13 -19l-196 -391v-251q0 -19 -18 -19h-61q-19 0 -19 19v240l-198 402q-10 19 14 19h69q13 0 23 -19z" />
    <glyph glyph-name="Z" unicode="Z" horiz-adv-x="500" 
d="M79 680h352q20 0 20 -19v-43q0 -9 -4 -17l-287 -518h288q19 0 19 -18v-46q0 -19 -19 -19h-386q-19 0 -19 19v46q0 7 5 17l284 515h-253q-19 0 -19 19v45q0 19 19 19z" />
    <glyph glyph-name="bracketleft" unicode="[" horiz-adv-x="378" 
d="M76 -191v870q0 20 19 20h204q19 0 19 -19v-45q0 -19 -19 -19h-125v-744h125q19 0 19 -19v-45q0 -19 -19 -19h-204q-19 0 -19 20z" />
    <glyph glyph-name="backslash" unicode="\" horiz-adv-x="368" 
d="M238 -128l-209 807q-5 20 15 20h64q18 0 23 -20l208 -807q5 -20 -14 -20h-65q-16 0 -22 20z" />
    <glyph glyph-name="bracketright" unicode="]" horiz-adv-x="378" 
d="M301 679v-870q0 -20 -18 -20h-204q-19 0 -19 19v45q0 19 19 19h124v744h-124q-19 0 -19 19v45q0 19 19 19h204q18 0 18 -20z" />
    <glyph glyph-name="asciicircum" unicode="^" horiz-adv-x="565" 
d="M397 308l-116 276l-114 -276q-8 -20 -21 -20h-57q-10 0 -15.5 5.5t-1.5 14.5l156 354q9 18 21 18h65q14 0 21 -18l157 -354q4 -9 -1 -14.5t-16 -5.5h-57q-13 0 -21 20z" />
    <glyph glyph-name="underscore" unicode="_" horiz-adv-x="443" 
d="M41 -80h361q19 0 19 -18v-43q0 -19 -19 -19h-361q-19 0 -19 19v43q0 18 19 18z" />
    <glyph glyph-name="grave" unicode="`" horiz-adv-x="324" 
d="M156 577l-76 112q-14 19 9 19h62q16 0 26 -18l59 -107q10 -18 -9 -18h-47q-14 0 -24 12z" />
    <glyph glyph-name="a" unicode="a" horiz-adv-x="510" 
d="M67 354v15q0 135 189 135t189 -135v-349q0 -20 -18 -20h-52q-18 0 -19 20l-2 29q-72 -57 -158 -57q-67 0 -104 34.5t-37 86.5v48q0 52 36 86.5t103 34.5h158v77q0 33 -21.5 50.5t-75.5 17.5q-55 0 -77 -16t-22 -49v-8q0 -20 -19 -20h-52q-18 0 -18 20zM220 71
q67 0 132 51v86h-138q-36 0 -51 -15t-15 -46v-20q0 -56 72 -56z" />
    <glyph glyph-name="b" unicode="b" horiz-adv-x="531" 
d="M143 0h-53q-19 0 -19 20v659q0 20 19 20h58q18 0 18 -20v-232q75 57 164 57q71 0 106 -36t35 -100v-240q0 -64 -35 -100t-106 -36q-92 0 -166 58l-2 -30q-1 -20 -19 -20zM376 143v210q0 65 -74 65q-69 0 -136 -52v-237q70 -51 136 -51q74 0 74 65z" />
    <glyph glyph-name="c" unicode="c" horiz-adv-x="484" 
d="M252 504q191 0 191 -137v-18q0 -19 -18 -19h-54q-19 0 -19 19v11q0 33 -22 49.5t-77 16.5q-54 0 -76 -16.5t-22 -49.5v-224q0 -33 22 -49.5t76 -16.5q55 0 77 16.5t22 49.5v20q0 19 19 19h54q18 0 18 -19v-27q0 -137 -192 -137q-191 0 -191 137v238q0 137 192 137z" />
    <glyph glyph-name="d" unicode="d" horiz-adv-x="531" 
d="M369 20l-2 30q-76 -58 -166 -58q-71 0 -106 36t-35 100v240q0 64 35 100t106 36q86 0 164 -57v232q0 20 18 20h58q19 0 19 -20v-659q0 -20 -19 -20h-53q-18 0 -19 20zM155 353v-210q0 -65 74 -65q66 0 136 51v237q-67 52 -136 52q-74 0 -74 -65z" />
    <glyph glyph-name="e" unicode="e" horiz-adv-x="495" 
d="M442 367v-122q0 -18 -17 -18h-272v-92q0 -33 21.5 -50t78.5 -17t78.5 17t21.5 50v11q0 19 19 19h51q19 0 19 -19v-17q0 -137 -191 -137t-191 137v238q0 137 193 137q189 0 189 -137zM153 361v-63h200v63q0 67 -100 67t-100 -67z" />
    <glyph glyph-name="f" unicode="f" horiz-adv-x="333" 
d="M95 494h6v77q0 137 199 137h7q19 0 19 -19v-42q0 -20 -19 -20h-7q-103 0 -103 -66v-67h98q19 0 19 -18v-40q0 -20 -19 -20h-98v-396q0 -20 -19 -20h-58q-19 0 -19 20v396h-59q-18 0 -18 20v35q0 18 18 19z" />
    <glyph glyph-name="g" unicode="g" horiz-adv-x="531" 
d="M201 -8q-71 0 -106 36t-35 100v240q0 64 35 100t106 36q93 0 166 -60l2 32q1 20 19 20h53q19 0 19 -20v-543q0 -137 -198 -137h-138q-20 0 -20 19v42q0 19 20 19h138q103 0 103 67v105q-76 -56 -164 -56zM155 353v-210q0 -65 74 -65q66 0 136 51v237q-67 52 -136 52
q-74 0 -74 -65z" />
    <glyph glyph-name="h" unicode="h" horiz-adv-x="536" 
d="M166 679v-231q71 56 164 56q68 0 104.5 -35.5t36.5 -92.5v-356q0 -20 -18 -20h-58q-19 0 -19 20v333q0 66 -74 66q-70 0 -136 -51v-348q0 -20 -18 -20h-58q-19 0 -19 20v659q0 20 19 20h58q18 0 18 -20z" />
    <glyph glyph-name="i" unicode="i" 
d="M166 476v-456q0 -20 -18 -20h-58q-19 0 -19 20v456q0 20 19 20h58q18 0 18 -20zM166 679v-90q0 -19 -18 -19h-58q-19 0 -19 19v90q0 20 19 20h58q18 0 18 -20z" />
    <glyph glyph-name="j" unicode="j" horiz-adv-x="236" 
d="M166 679v-90q0 -19 -18 -19h-59q-18 0 -18 19v90q0 20 18 20h59q18 0 18 -20zM166 476v-543q0 -137 -198 -137h-8q-19 0 -19 19v42q0 19 19 19h8q103 0 103 67v533q0 20 18 20h58q19 0 19 -20z" />
    <glyph glyph-name="k" unicode="k" horiz-adv-x="474" 
d="M271 281l196 -262q6 -7 3 -13t-12 -6h-64q-14 0 -29 19l-170 223h-29v-223q0 -19 -18 -19h-59q-18 0 -18 19v661q0 19 18 19h59q18 0 18 -19v-366h28l151 163q17 19 31 19h63q10 0 13 -6.5t-4 -13.5z" />
    <glyph glyph-name="l" unicode="l" 
d="M166 679v-659q0 -20 -18 -20h-58q-19 0 -19 20v659q0 20 19 20h58q18 0 18 -20z" />
    <glyph glyph-name="m" unicode="m" horiz-adv-x="830" 
d="M90 496h53q18 0 19 -19l2 -32q69 59 160 59q95 0 128 -68q78 68 171 68q68 0 105 -35.5t37 -92.5v-356q0 -20 -19 -20h-57q-20 0 -20 20v333q0 66 -74 66q-73 0 -131 -52q1 -4 1 -13v-334q0 -20 -18 -20h-58q-19 0 -19 20v333q0 66 -74 66q-70 0 -130 -51v-348
q0 -20 -18 -20h-58q-19 0 -19 20v457q0 19 19 19z" />
    <glyph glyph-name="n" unicode="n" horiz-adv-x="536" 
d="M90 496h53q18 0 19 -19l2 -32q69 59 166 59q68 0 104.5 -35.5t36.5 -92.5v-356q0 -20 -18 -20h-58q-19 0 -19 20v333q0 66 -74 66q-70 0 -136 -51v-348q0 -20 -18 -20h-58q-19 0 -19 20v457q0 19 19 19z" />
    <glyph glyph-name="o" unicode="o" horiz-adv-x="520" 
d="M60 129v238q0 64 49 100.5t151 36.5t151 -36.5t49 -100.5v-238q0 -64 -49 -100.5t-151 -36.5t-151 36.5t-49 100.5zM365 137v222q0 67 -105 67t-105 -67v-222q0 -67 105 -67t105 67z" />
    <glyph glyph-name="p" unicode="p" horiz-adv-x="531" 
d="M90 496h53q18 0 19 -20l2 -31q75 59 166 59q71 0 106 -36t35 -100v-240q0 -64 -35 -100t-106 -36q-90 0 -164 56v-233q0 -19 -18 -19h-58q-19 0 -19 19v661q0 20 19 20zM376 143v210q0 65 -74 65q-69 0 -136 -52v-237q70 -51 136 -51q74 0 74 65z" />
    <glyph glyph-name="q" unicode="q" horiz-adv-x="531" 
d="M367 445l2 31q1 20 19 20h53q19 0 19 -20v-661q0 -19 -19 -19h-58q-18 0 -18 19v233q-76 -56 -164 -56q-71 0 -106 36t-35 100v240q0 64 35 100t106 36q88 0 166 -59zM155 353v-210q0 -65 74 -65q66 0 136 51v237q-67 52 -136 52q-74 0 -74 -65z" />
    <glyph glyph-name="r" unicode="r" horiz-adv-x="356" 
d="M321 504q20 0 20 -19v-46q0 -18 -20 -20q-88 -6 -155 -64v-335q0 -20 -18 -20h-58q-19 0 -19 20v457q0 19 19 19h53q18 0 19 -19l3 -43q70 70 156 70z" />
    <glyph glyph-name="s" unicode="s" horiz-adv-x="468" 
d="M333 357v24q0 53 -95 53q-93 0 -93 -53v-17q0 -32 42 -46l150 -52q90 -31 90 -98v-56q0 -51 -47.5 -85.5t-142.5 -34.5q-96 0 -142.5 34.5t-46.5 85.5v25q0 18 17 18h53q17 0 17 -18v-21q0 -53 102 -53t102 53v27q0 30 -53 48l-150 52q-31 11 -54.5 38.5t-23.5 62.5v37
q0 52 43.5 87.5t137.5 35.5q93 0 137 -35.5t44 -87.5v-24q0 -18 -18 -18h-52q-17 0 -17 18z" />
    <glyph glyph-name="t" unicode="t" horiz-adv-x="354" 
d="M191 494h103q19 0 19 -18v-40q0 -20 -19 -20h-103v-269q0 -66 101 -66h19q19 0 19 -20v-42q0 -19 -19 -19h-33q-101 0 -142 33.5t-41 103.5v279h-55q-19 0 -19 20v35q0 18 19 19l49 4h6v101q0 20 19 20h59q18 0 18 -20v-101z" />
    <glyph glyph-name="u" unicode="u" horiz-adv-x="530" 
d="M368 19l-2 30q-67 -57 -160 -57q-67 0 -104 35t-37 92v357q0 20 18 20h58q19 0 19 -20v-333q0 -66 74 -66q68 0 130 50v349q0 20 18 20h59q18 0 18 -20v-457q0 -19 -18 -19h-54q-18 0 -19 19z" />
    <glyph glyph-name="v" unicode="v" horiz-adv-x="450" 
d="M256 0h-67q-9 0 -13 4t-7 14l-154 458q-6 20 17 20h61q15 0 22 -20l95 -287q8 -25 15 -74q6 45 17 73l100 288q7 20 21 20h55q23 0 17 -20l-160 -458q-3 -10 -6.5 -14t-12.5 -4z" />
    <glyph glyph-name="w" unicode="w" horiz-adv-x="681" 
d="M666 476l-129 -458q-3 -10 -7 -14t-13 -4h-69q-16 0 -20 18l-75 295q-10 32 -10 50l-12 -50l-85 -295q-4 -18 -19 -18h-68q-16 0 -20 18l-124 458q-6 20 18 20h56q17 0 22 -20l83 -311q2 -7 3.5 -18t3 -18.5t1.5 -8.5l11 45l86 311q5 20 22 20h58q16 0 21 -20l78 -311
q3 -11 5 -21t3 -15.5t1 -6.5q0 8 10 43l83 311q5 20 21 20h48q23 0 17 -20z" />
    <glyph glyph-name="x" unicode="x" horiz-adv-x="468" 
d="M284 249l156 -230q5 -7 2.5 -13t-12.5 -6h-64q-14 0 -27 19l-113 165l-110 -165q-13 -19 -27 -19h-56q-10 0 -12.5 6t2.5 13l157 233l-152 224q-6 8 -3 14t13 6h64q15 0 28 -20l109 -158l103 158q13 20 28 20h57q10 0 12 -6t-3 -14z" />
    <glyph glyph-name="y" unicode="y" horiz-adv-x="450" 
d="M113 476l97 -289q4 -12 7.5 -28t5.5 -29l2 -12q7 32 18 67l99 291q6 20 22 20h54q23 0 17 -20l-226 -661q-6 -19 -21 -19h-43q-24 0 -18 19l56 177l-168 484q-6 20 17 20h59q15 0 22 -20z" />
    <glyph glyph-name="z" unicode="z" horiz-adv-x="451" 
d="M74 496h302q19 0 19 -19v-40q0 -10 -4 -15l-234 -344h235q19 0 19 -18v-41q0 -19 -19 -19h-332q-19 0 -19 19v41q0 8 4 14l232 343h-203q-19 0 -19 19v41q0 19 19 19z" />
    <glyph glyph-name="braceleft" unicode="{" horiz-adv-x="449" 
d="M169 356v215q0 137 198 137h8q19 0 19 -19v-42q0 -20 -19 -20h-8q-54 0 -77 -16.5t-23 -49.5v-215q0 -76 -73 -97q73 -22 73 -98v-222q0 -33 23 -49.5t77 -16.5h8q19 0 19 -20v-42q0 -19 -19 -19h-8q-198 0 -198 137v223q0 67 -95 67h-1q-19 0 -19 19v41q0 20 19 20h1
q95 0 95 67z" />
    <glyph glyph-name="bar" unicode="|" horiz-adv-x="261" 
d="M180 679v-870q0 -20 -18 -20h-61q-19 0 -19 20v870q0 20 19 20h61q18 0 18 -20z" />
    <glyph glyph-name="braceright" unicode="}" horiz-adv-x="449" 
d="M279 571v-215q0 -67 95 -67h1q19 0 19 -20v-41q0 -19 -19 -19h-1q-95 0 -95 -67v-223q0 -137 -198 -137h-8q-19 0 -19 19v42q0 20 19 20h8q54 0 77 16.5t23 49.5v222q0 76 73 98q-73 21 -73 97v215q0 33 -23 49.5t-77 16.5h-8q-19 0 -19 20v42q0 19 19 19h8
q198 0 198 -137z" />
    <glyph glyph-name="asciitilde" unicode="~" horiz-adv-x="494" 
d="M161 270q-13 0 -16 -6.5t-6 -28.5l-1 -9q-1 -17 -21 -17h-30q-18 0 -16 22l3 36q3 44 26 65.5t52 21.5q24 0 48 -11l90 -42q30 -14 43 -14q4 0 7 0.5t5 2.5t3 3.5t2 5.5t1.5 6.5t1 9t1.5 10.5l1 7q2 17 20 17h31q17 0 16 -22l-3 -36q-4 -46 -25.5 -67t-49.5 -21
q-27 0 -56 13l-92 43q-25 11 -35 11z" />
    <glyph glyph-name="exclamdown" unicode="&#xa1;" horiz-adv-x="264" 
d="M82 106l9 200q1 19 18 19h44q17 0 18 -19l10 -200v-270q0 -20 -19 -20h-62q-18 0 -18 20v270zM83 397v80q0 19 18 19h61q19 0 19 -19v-80q0 -19 -19 -19h-61q-18 0 -18 19z" />
    <glyph glyph-name="cent" unicode="&#xa2;" horiz-adv-x="536" 
d="M312 660v-66q147 -15 147 -135v-18q0 -19 -18 -19h-54q-19 0 -19 19v11q0 33 -22 49.5t-77 16.5q-54 0 -76 -16.5t-22 -49.5v-224q0 -33 22 -49.5t76 -16.5q55 0 77 16.5t22 49.5v20q0 19 19 19h54q18 0 18 -19v-27q0 -120 -147 -135v-66q0 -20 -18 -20h-58q-19 0 -19 20
v66q-141 16 -141 135v238q0 118 141 134v67q0 20 19 20h58q18 0 18 -20z" />
    <glyph glyph-name="sterling" unicode="&#xa3;" horiz-adv-x="672" 
d="M250 378h135q19 0 19 -18v-43q0 -19 -19 -19h-135v-217h181q72 0 72 97v7q0 20 19 20h55q19 0 19 -20v-7q0 -100 -36.5 -139t-104.5 -39h-360q-19 0 -19 19v43q0 19 19 19h57v217h-57q-19 0 -19 19v43q0 18 19 18h57v161q0 149 208 149q209 0 209 -149v-31q0 -20 -18 -20
h-57q-19 0 -19 20v14q0 43 -25.5 63t-88.5 20q-62 0 -86.5 -20t-24.5 -63v-144z" />
    <glyph glyph-name="currency" unicode="&#xa4;" horiz-adv-x="653" 
d="M95 306h40v67h-40q-19 0 -19 19v25q0 18 19 18h40v99q0 154 221 154t221 -154v-49q0 -20 -18 -20h-58q-19 0 -19 20v33q0 87 -125 87q-124 0 -124 -87v-83h132q19 0 19 -18v-25q0 -19 -19 -19h-132v-67h132q19 0 19 -18v-25q0 -19 -19 -19h-132v-82q0 -87 124 -87
q125 0 125 87v47q0 19 19 19h58q18 0 18 -19v-63q0 -154 -221 -154t-221 154v98h-40q-19 0 -19 19v25q0 18 19 18z" />
    <glyph glyph-name="yen" unicode="&#xa5;" horiz-adv-x="651" 
d="M521 250h-146v-231q0 -19 -18 -19h-61q-19 0 -19 19v231h-146q-19 0 -19 18v25q0 19 19 19h120l-33 67h-87q-19 0 -19 19v25q0 18 19 18h56l-108 220q-9 19 14 19h69q14 0 23 -19l125 -264l16 -44q7 27 16 44l133 264q9 19 22 19h61q23 0 13 -19l-111 -220h61
q19 0 19 -18v-25q0 -19 -19 -19h-92l-33 -67h125q19 0 19 -19v-25q0 -18 -19 -18z" />
    <glyph glyph-name="brokenbar" unicode="&#xa6;" 
d="M166 660v-326q0 -20 -18 -20h-58q-19 0 -19 20v326q0 20 19 20h58q18 0 18 -20zM166 135v-326q0 -20 -18 -20h-58q-19 0 -19 20v326q0 20 19 20h58q18 0 18 -20z" />
    <glyph glyph-name="section" unicode="&#xa7;" horiz-adv-x="550" 
d="M457 277v-91q0 -19 -18 -19h-52q-18 0 -18 19v82q0 40 -49 54l-141 43q-39 12 -68 39t-29 75v71q0 63 46.5 100.5t147.5 37.5q193 0 193 -134v-11q0 -19 -19 -19h-51q-19 0 -19 19v15q0 33 -23 49t-78 16t-79 -16t-24 -49v-74q0 -32 59 -51l131 -39q36 -10 63.5 -41
t27.5 -76zM94 204v90q0 19 18 19h52q18 0 18 -19v-81q0 -22 15.5 -36t33.5 -19l141 -42q39 -12 68 -39t29 -75v-71q0 -63 -46.5 -100.5t-147.5 -37.5q-193 0 -193 134v11q0 19 19 19h51q19 0 19 -19v-16q0 -33 23.5 -49t78.5 -16q102 0 102 66v74q0 32 -59 51l-131 39
q-36 10 -63.5 41t-27.5 76z" />
    <glyph glyph-name="dieresis" unicode="&#xa8;" horiz-adv-x="348" 
d="M149 685v-95q0 -19 -18 -19h-35q-19 0 -19 19v95q0 19 19 19h35q18 0 18 -19zM270 685v-95q0 -19 -18 -19h-35q-19 0 -19 19v95q0 19 19 19h35q18 0 18 -19z" />
    <glyph glyph-name="copyright" unicode="&#xa9;" horiz-adv-x="749" 
d="M667 486v-291q0 -43 -10.5 -75t-39.5 -63.5t-90.5 -48t-152.5 -16.5t-152 16.5t-90 48t-39.5 63.5t-10.5 75v291q0 43 10.5 75t39.5 63t90 47.5t152 16.5q74 0 128 -12t85.5 -30t50 -46t24 -54t5.5 -60zM597 182v317q0 128 -223 128q-222 0 -222 -129v-316
q0 -128 222 -128q223 0 223 128zM375 548q87 0 121 -32.5t34 -98.5v-12q0 -19 -19 -19h-47q-19 0 -19 19v10q0 34 -15 50.5t-55 16.5t-54.5 -16t-14.5 -51v-150q0 -35 14.5 -51t54.5 -16t55 16.5t15 50.5v17q0 20 19 20h47q19 0 19 -20v-20q0 -66 -34 -98.5t-121 -32.5
q-86 0 -120.5 32.5t-34.5 98.5v155q0 66 34.5 98.5t120.5 32.5z" />
    <glyph glyph-name="ordfeminine" unicode="&#xaa;" horiz-adv-x="355" 
d="M63 598v9q0 38 30.5 59.5t88.5 21.5q118 0 118 -84v-206q0 -13 -13 -13h-40q-13 0 -14 13l-2 15q-40 -33 -90 -33q-43 0 -64.5 21t-21.5 53v27q0 32 23.5 53t65.5 21h85v48q0 33 -49 33t-49 -32v-6q0 -13 -13 -13h-41q-14 0 -14 13zM161 433q37 0 68 28v46h-71
q-32 0 -32 -31v-12q0 -31 35 -31z" />
    <glyph glyph-name="guillemotleft" unicode="&#xab;" horiz-adv-x="580" 
d="M491 337l-126 -92l126 -91q19 -13 19 -29v-60q0 -10 -6 -13t-13 2l-184 136q-17 13 -17 26v59q0 12 17 25l184 137q7 6 13 2.5t6 -13.5v-60q0 -14 -19 -29zM271 337l-126 -92l126 -91q19 -13 19 -29v-60q0 -10 -6 -13t-13 2l-184 136q-17 13 -17 26v59q0 12 17 25
l184 137q7 6 13 2.5t6 -13.5v-60q0 -14 -19 -29z" />
    <glyph glyph-name="logicalnot" unicode="&#xac;" horiz-adv-x="388" 
d="M75 317q0 49 34.5 83.5t83.5 34.5t83.5 -34.5t34.5 -83.5t-34.5 -83.5t-83.5 -34.5t-83.5 34.5t-34.5 83.5z" />
    <glyph glyph-name="uni00AD" unicode="&#xad;" horiz-adv-x="448" 
d="M90 328h268q19 0 19 -18v-42q0 -18 -19 -18h-268q-19 0 -19 18v42q0 18 19 18z" />
    <glyph glyph-name="registered" unicode="&#xae;" horiz-adv-x="632" 
d="M551 538v-181q0 -150 -234 -150q-235 0 -235 150v181q0 150 235 150q234 0 234 -150zM487 350v194q0 86 -170 86q-171 0 -171 -86v-193q0 -87 171 -87q170 0 170 86zM433 482q0 -50 -43 -68l36 -89q5 -14 -13 -14h-39q-7 0 -13 14l-33 79h-51v-79q0 -14 -13 -14h-39
q-13 0 -13 14v241q0 14 13 14h105q103 0 103 -78v-20zM323 531h-46v-78h46q19 0 31.5 8.5t12.5 22.5v15q0 32 -44 32z" />
    <glyph glyph-name="macron" unicode="&#xaf;" horiz-adv-x="412" 
d="M85 659h242q19 0 19 -18v-36q0 -18 -19 -18h-242q-20 0 -20 18v36q0 18 20 18z" />
    <glyph glyph-name="degree" unicode="&#xb0;" horiz-adv-x="418" 
d="M60 489v96q0 50 34 76t115 26t115 -26t34 -76v-96q0 -50 -34 -76t-115 -26t-115 26t-34 76zM277 493v89q0 41 -68 41t-68 -41v-89q0 -42 68 -42t68 42z" />
    <glyph glyph-name="plusminus" unicode="&#xb1;" horiz-adv-x="571" 
d="M245 231v110h-155q-19 0 -19 19v43q0 18 19 18h155v110q0 19 18 19h42q19 0 19 -19v-110h157q19 0 19 -18v-43q0 -19 -19 -19h-157v-110q0 -20 -19 -20h-42q-18 0 -18 20zM90 153h391q19 0 19 -19v-42q0 -20 -19 -20h-391q-19 0 -19 20v42q0 19 19 19z" />
    <glyph glyph-name="twosuperior" unicode="&#xb2;" horiz-adv-x="380" 
d="M136 336h177q14 0 14 -14v-33q0 -14 -14 -14h-238q-13 0 -13 14v110q0 16 7 27.5t14.5 16.5t20.5 10l120 48q27 11 27 36v44q0 47 -63 47q-62 0 -62 -47v-24q0 -15 -13 -15h-46q-13 0 -13 15v35q0 42 31.5 69t102.5 27q72 0 104 -27t32 -69v-51q0 -66 -56 -88l-107 -43
q-25 -8 -25 -23v-51z" />
    <glyph glyph-name="threesuperior" unicode="&#xb3;" horiz-adv-x="379" 
d="M143 517h41q62 0 62 46v20q0 24 -13.5 35.5t-44.5 11.5q-59 0 -59 -47v-6q0 -13 -14 -13h-45q-14 0 -14 13v17q0 95 133 95q131 0 131 -94v-43q0 -49 -46 -62q51 -18 51 -70v-56q0 -93 -135 -93q-73 0 -104.5 26.5t-31.5 68.5v17q0 13 13 13h45q15 0 15 -13v-6
q0 -47 62 -47q63 0 63 47v35q0 46 -62 46h-47q-15 0 -15 13v32q0 14 15 14z" />
    <glyph glyph-name="acute" unicode="&#xb4;" horiz-adv-x="324" 
d="M243 689l-76 -112q-7 -12 -24 -12h-46q-20 0 -10 18l59 107q10 18 26 18h62q23 0 9 -19z" />
    <glyph glyph-name="uni00B5" unicode="&#xb5;" horiz-adv-x="530" 
d="M368 19l-2 30q-67 -57 -160 -57q-25 0 -51 7l5 -183q0 -20 -18 -20h-59q-18 0 -18 20v660q0 20 18 20h58q19 0 19 -20v-333q0 -66 74 -66q68 0 130 50v349q0 20 18 20h59q18 0 18 -20v-457q0 -19 -18 -19h-54q-18 0 -19 19z" />
    <glyph glyph-name="paragraph" unicode="&#xb6;" horiz-adv-x="665" 
d="M409 661v-845q0 -20 -18 -20h-61q-19 0 -19 20v466h-36q-107 0 -150 34t-43 97v136q0 63 43 97t150 34h116q18 0 18 -19zM584 660v-844q0 -20 -18 -20h-61q-19 0 -19 20v844q0 20 19 20h61q18 0 18 -20z" />
    <glyph glyph-name="periodcentered" unicode="&#xb7;" horiz-adv-x="233" 
d="M165 310v-80q0 -19 -18 -19h-60q-19 0 -19 19v80q0 19 19 19h60q18 0 18 -19z" />
    <glyph glyph-name="cedilla" unicode="&#xb8;" horiz-adv-x="217" 
d="M103 -52h34q37 0 61 -20t24 -59q0 -40 -24 -60t-61 -20h-113q-19 0 -19 19v20q0 18 19 18h99q32 0 32 23q0 22 -32 22h-66q-17 0 -23 6t-3 18l24 92q5 18 22 17l27 -3q20 -2 13 -23z" />
    <glyph glyph-name="onesuperior" unicode="&#xb9;" horiz-adv-x="375" 
d="M68 659l145 28q6 1 9.5 -1.5t3.5 -11.5v-338h82q8 0 10.5 -2.5t2.5 -10.5v-33q0 -14 -13 -14h-240q-14 0 -14 14v33q0 13 14 13h83v278l-83 -14q-14 -3 -14 11v34q0 11 14 14z" />
    <glyph glyph-name="ordmasculine" unicode="&#xba;" horiz-adv-x="364" 
d="M54 465v137q0 40 32 63t96 23q63 0 95 -23t32 -63v-137q0 -85 -127 -85q-128 0 -128 85zM236 473v122q0 36 -54 36q-55 0 -55 -36v-122q0 -36 55 -36q54 0 54 36z" />
    <glyph glyph-name="guillemotright" unicode="&#xbb;" horiz-adv-x="580" 
d="M309 161l126 92l-126 91q-19 13 -19 29v60q0 10 6 13t13 -2l184 -136q17 -13 17 -26v-59q0 -12 -17 -25l-184 -137q-7 -6 -13 -2.5t-6 13.5v60q0 14 19 29zM89 161l126 92l-126 91q-19 13 -19 29v60q0 10 6 13t13 -2l184 -136q17 -13 17 -26v-59q0 -12 -17 -25l-184 -137
q-7 -6 -13 -2.5t-6 13.5v60q0 14 19 29z" />
    <glyph glyph-name="onequarter" unicode="&#xbc;" horiz-adv-x="860" 
d="M681 394l-70 -219h121v219q0 14 14 14h47q14 0 14 -14v-380q0 -14 -14 -14h-47q-14 0 -14 14v101h-185q-15 0 -15 14v30q0 5 2 11l72 224q5 14 17 14h48q15 0 10 -14zM68 659l145 28q6 1 9.5 -1.5t3.5 -11.5v-338h82q8 0 10.5 -2.5t2.5 -10.5v-33q0 -14 -13 -14h-240
q-14 0 -14 14v33q0 13 14 13h83v280l-83 -16q-14 -3 -14 11v34q0 11 14 14zM579 715l-190 -750q-4 -14 -15 -14h-50q-14 0 -11 14l189 750q3 14 17 14h49q14 0 11 -14z" />
    <glyph glyph-name="onehalf" unicode="&#xbd;" horiz-adv-x="871" 
d="M68 659l145 28q6 1 9.5 -1.5t3.5 -11.5v-338h82q8 0 10.5 -2.5t2.5 -10.5v-33q0 -14 -13 -14h-240q-14 0 -14 14v33q0 13 14 13h83v280l-83 -16q-14 -3 -14 11v34q0 11 14 14zM571 715l-190 -750q-3 -14 -15 -14h-50q-14 0 -11 14l190 750q4 14 16 14h50q13 0 10 -14z
M627 61h177q14 0 14 -14v-33q0 -14 -14 -14h-238q-13 0 -13 14v110q0 16 7 27.5t14.5 16.5t20.5 10l120 48q27 10 27 36v44q0 47 -63 47q-62 0 -62 -47v-24q0 -15 -13 -15h-46q-14 0 -14 15v35q0 42 31.5 69t103.5 27t104 -27t32 -69v-51q0 -66 -56 -88l-107 -43
q-25 -8 -25 -23v-51z" />
    <glyph glyph-name="threequarters" unicode="&#xbe;" horiz-adv-x="866" 
d="M143 516h41q62 0 62 46v20q0 24 -13.5 35.5t-44.5 11.5q-59 0 -59 -47v-6q0 -13 -14 -13h-45q-14 0 -14 13v17q0 95 133 95q131 0 131 -94v-43q0 -49 -46 -62q51 -18 51 -70v-56q0 -93 -135 -93q-73 0 -104.5 26.5t-31.5 68.5v17q0 13 13 13h45q15 0 15 -13v-6
q0 -47 62 -47q63 0 63 47v35q0 46 -62 46h-47q-15 0 -15 13v32q0 14 15 14zM686 394l-70 -219h121v219q0 14 14 14h47q14 0 14 -14v-380q0 -14 -14 -14h-47q-14 0 -14 14v101h-185q-15 0 -15 14v30q0 5 2 11l72 224q5 14 17 14h48q15 0 10 -14zM585 715l-190 -750
q-3 -14 -15 -14h-50q-14 0 -11 14l190 750q4 14 16 14h50q13 0 10 -14z" />
    <glyph glyph-name="questiondown" unicode="&#xbf;" horiz-adv-x="566" 
d="M351 306v-74q0 -61 -64 -93l-80 -41q-45 -25 -45 -70v-51q0 -87 122 -87t122 87v43q0 20 18 20h58q19 0 19 -20v-58q0 -69 -50.5 -111.5t-166.5 -42.5q-217 0 -219 154v63q0 99 87 141l55 26q46 22 46 64v50q0 19 18 19h62q18 0 18 -19zM253 397v80q0 19 18 19h62
q18 0 18 -19v-80q0 -19 -18 -19h-62q-18 0 -18 19z" />
    <glyph glyph-name="Agrave" unicode="&#xc0;" horiz-adv-x="538" 
d="M238 680h62q18 0 24 -19l194 -642q6 -19 -15 -19h-63q-17 0 -22 19l-47 155h-211l-46 -155q-5 -19 -22 -19h-58q-20 0 -14 19l194 642q6 19 24 19zM350 252l-56 182q-8 24 -17 77t-10 69q0 -1 -4.5 -29.5t-11 -62t-12.5 -52.5l-57 -184h168zM217 747l-76 111
q-6 8 -3.5 14t12.5 6h62q16 0 26 -19l59 -106q10 -19 -9 -19h-47q-15 0 -24 13z" />
    <glyph glyph-name="Aacute" unicode="&#xc1;" horiz-adv-x="538" 
d="M238 680h62q18 0 24 -19l194 -642q6 -19 -15 -19h-63q-17 0 -22 19l-47 155h-211l-46 -155q-5 -19 -22 -19h-58q-20 0 -14 19l194 642q6 19 24 19zM350 252l-56 182q-8 24 -17 77t-10 69q0 -1 -4.5 -29.5t-11 -62t-12.5 -52.5l-57 -184h168zM393 859l-77 -112
q-7 -12 -24 -12h-46q-20 0 -10 18l59 107q10 18 26 18h62q22 0 10 -19z" />
    <glyph glyph-name="Acircumflex" unicode="&#xc2;" horiz-adv-x="538" 
d="M238 680h62q18 0 24 -19l194 -642q6 -19 -15 -19h-63q-17 0 -22 19l-47 155h-211l-46 -155q-5 -19 -22 -19h-58q-20 0 -14 19l194 642q6 19 24 19zM350 252l-56 182q-8 24 -17 77t-10 69q0 -1 -4.5 -29.5t-11 -62t-12.5 -52.5l-57 -184h168zM269 820l-41 -67
q-10 -18 -27 -18h-45q-10 0 -12.5 5.5t2.5 12.5l75 106q14 19 30 19h35q16 0 30 -19l75 -106q5 -7 2.5 -12.5t-12.5 -5.5h-45q-15 0 -26 18z" />
    <glyph glyph-name="Atilde" unicode="&#xc3;" horiz-adv-x="538" 
d="M238 680h62q18 0 24 -19l194 -642q6 -19 -15 -19h-63q-17 0 -22 19l-47 155h-211l-46 -155q-5 -19 -22 -19h-58q-20 0 -14 19l194 642q6 19 24 19zM350 252l-56 182q-8 24 -17 77t-10 69q0 -1 -4.5 -29.5t-11 -62t-12.5 -52.5l-57 -184h168zM200 805q-13 0 -16 -7.5
t-3 -30.5v-7q0 -17 -20 -17h-32q-18 0 -16 22l2 32q2 40 24.5 60t54.5 20q33 0 59 -16l43 -26q33 -19 40 -19q12 0 15.5 8t3.5 30v7q0 17 21 17h31q18 0 16 -22l-2 -32q-2 -40 -24.5 -60t-55.5 -20q-32 0 -58 16l-43 26q-33 19 -40 19z" />
    <glyph glyph-name="Adieresis" unicode="&#xc4;" horiz-adv-x="538" 
d="M238 680h62q18 0 24 -19l194 -642q6 -19 -15 -19h-63q-17 0 -22 19l-47 155h-211l-46 -155q-5 -19 -22 -19h-58q-20 0 -14 19l194 642q6 19 24 19zM350 252l-56 182q-8 24 -17 77t-10 69q0 -1 -4.5 -29.5t-11 -62t-12.5 -52.5l-57 -184h168zM244 853v-95q0 -19 -18 -19
h-35q-18 0 -18 19v95q0 20 18 20h35q18 0 18 -20zM365 853v-95q0 -19 -18 -19h-35q-18 0 -18 19v95q0 20 18 20h35q18 0 18 -20z" />
    <glyph glyph-name="Aring" unicode="&#xc5;" horiz-adv-x="538" 
d="M238 680h62q18 0 24 -19l194 -642q6 -19 -15 -19h-63q-17 0 -22 19l-47 155h-211l-46 -155q-5 -19 -22 -19h-58q-20 0 -14 19l194 642q6 19 24 19zM350 252l-56 182q-8 24 -17 77t-10 69q0 -1 -4.5 -29.5t-11 -62t-12.5 -52.5l-57 -184h168zM369 815v-23
q0 -33 -25.5 -54.5t-74.5 -21.5t-74.5 21.5t-25.5 54.5v23q0 33 25.5 54.5t74.5 21.5t74.5 -21.5t25.5 -54.5zM312 800v7q0 34 -43 34t-43 -34v-7q0 -34 43 -34t43 34z" />
    <glyph glyph-name="AE" unicode="&#xc6;" horiz-adv-x="837" 
d="M426 680h334q19 0 19 -18v-43q0 -19 -19 -19h-262v-207h245q19 0 19 -18v-40q0 -19 -19 -19h-245v-236h274q19 0 19 -18v-43q0 -19 -19 -19h-346q-21 0 -21 19v155h-200l-89 -155q-11 -19 -23 -19h-57q-10 0 -14.5 5t0.5 14l377 642q11 19 27 19zM371 459l-120 -207h154
v270q-9 -18 -34 -63z" />
    <glyph glyph-name="Ccedilla" unicode="&#xc7;" horiz-adv-x="559" 
d="M278 -52h34q37 0 61 -20t24 -59q0 -40 -24 -60t-61 -20h-113q-19 0 -19 19v20q0 18 19 18h99q32 0 32 23q0 22 -32 22h-66q-18 0 -23.5 6t-2.5 18l21 81q-156 21 -156 150v388q0 154 221 154t221 -154v-49q0 -20 -18 -20h-58q-19 0 -19 20v33q0 87 -125 87
q-124 0 -124 -87v-356q0 -87 124 -87q125 0 125 87v47q0 19 19 19h58q18 0 18 -19v-63q0 -154 -221 -154h-2z" />
    <glyph glyph-name="Egrave" unicode="&#xc8;" horiz-adv-x="519" 
d="M236 747l-76 111q-6 8 -3.5 14t12.5 6h62q16 0 26 -19l59 -106q10 -19 -9 -19h-47q-15 0 -24 13zM453 0h-353q-18 0 -18 20v640q0 20 18 20h342q19 0 19 -19v-45q0 -19 -19 -19h-263v-202h245q20 0 20 -19v-43q0 -19 -20 -19h-245v-231h274q19 0 19 -18v-46
q0 -19 -19 -19z" />
    <glyph glyph-name="Eacute" unicode="&#xc9;" horiz-adv-x="519" 
d="M453 0h-353q-18 0 -18 20v640q0 20 18 20h342q19 0 19 -19v-45q0 -19 -19 -19h-263v-202h245q20 0 20 -19v-43q0 -19 -20 -19h-245v-231h274q19 0 19 -18v-46q0 -19 -19 -19zM383 859l-77 -112q-7 -12 -24 -12h-46q-20 0 -10 18l59 107q10 18 26 18h62q22 0 10 -19z" />
    <glyph glyph-name="Ecircumflex" unicode="&#xca;" horiz-adv-x="519" 
d="M260 820l-41 -67q-10 -18 -27 -18h-45q-10 0 -12.5 5.5t2.5 12.5l75 106q14 19 30 19h35q16 0 30 -19l75 -106q6 -7 3 -12.5t-13 -5.5h-45q-15 0 -26 18zM453 0h-353q-18 0 -18 20v640q0 20 18 20h342q19 0 19 -19v-45q0 -19 -19 -19h-263v-202h245q20 0 20 -19v-43
q0 -19 -20 -19h-245v-231h274q19 0 19 -18v-46q0 -19 -19 -19z" />
    <glyph glyph-name="Edieresis" unicode="&#xcb;" horiz-adv-x="519" 
d="M453 0h-353q-18 0 -18 20v640q0 20 18 20h342q19 0 19 -19v-45q0 -19 -19 -19h-263v-202h245q20 0 20 -19v-43q0 -19 -20 -19h-245v-231h274q19 0 19 -18v-46q0 -19 -19 -19zM246 853v-95q0 -19 -18 -19h-35q-18 0 -18 19v95q0 20 18 20h35q18 0 18 -20zM367 853v-95
q0 -19 -18 -19h-35q-18 0 -18 19v95q0 20 18 20h35q18 0 18 -20z" />
    <glyph glyph-name="Igrave" unicode="&#xcc;" horiz-adv-x="261" 
d="M179 660v-640q0 -20 -18 -20h-61q-18 0 -18 20v640q0 20 18 20h61q18 0 18 -20zM83 747l-76 111q-6 8 -3.5 14t12.5 6h62q16 0 26 -19l59 -106q10 -19 -9 -19h-47q-15 0 -24 13z" />
    <glyph glyph-name="Iacute" unicode="&#xcd;" horiz-adv-x="261" 
d="M179 660v-640q0 -20 -18 -20h-61q-18 0 -18 20v640q0 20 18 20h61q18 0 18 -20zM251 859l-77 -112q-7 -12 -24 -12h-46q-20 0 -10 18l59 107q10 18 26 18h62q22 0 10 -19z" />
    <glyph glyph-name="Icircumflex" unicode="&#xce;" horiz-adv-x="261" 
d="M179 660v-640q0 -20 -18 -20h-61q-18 0 -18 20v640q0 20 18 20h61q18 0 18 -20zM131 820l-41 -67q-10 -18 -27 -18h-45q-10 0 -12.5 5.5t2.5 12.5l75 106q14 19 30 19h35q16 0 30 -19l75 -106q5 -7 2.5 -12.5t-12.5 -5.5h-45q-15 0 -26 18z" />
    <glyph glyph-name="Idieresis" unicode="&#xcf;" horiz-adv-x="261" 
d="M179 660v-640q0 -20 -18 -20h-61q-18 0 -18 20v640q0 20 18 20h61q18 0 18 -20zM106 853v-95q0 -19 -18 -19h-35q-18 0 -18 19v95q0 20 18 20h35q18 0 18 -20zM227 853v-95q0 -19 -18 -19h-35q-18 0 -18 19v95q0 20 18 20h35q18 0 18 -20z" />
    <glyph glyph-name="Eth" unicode="&#xd0;" horiz-adv-x="608" 
d="M309 0h-211q-16 0 -16 20v287h-56q-19 0 -19 18v36q0 18 19 18h56v281q0 20 18 20h209q120 0 174 -43t54 -111v-372q0 -68 -54 -111t-174 -43zM309 597h-130v-218h115q19 0 19 -18v-36q0 -18 -19 -18h-115v-224h130q130 0 130 87v340q0 87 -130 87z" />
    <glyph glyph-name="Ntilde" unicode="&#xd1;" horiz-adv-x="618" 
d="M536 661v-642q0 -19 -18 -19h-55q-12 0 -18 9l-235 412q-8 13 -15 26.5t-10.5 22t-6.5 16.5l-4 7v-474q0 -19 -18 -19h-56q-18 0 -18 19v642q0 19 18 19h56q11 0 16 -8l241 -421q6 -10 13 -25t12 -27l6 -12v474q0 19 19 19h55q18 0 18 -19zM241 805q-13 0 -16 -7.5
t-3 -30.5v-7q0 -17 -20 -17h-32q-18 0 -16 22l2 32q2 40 24.5 60t54.5 20q33 0 59 -16l43 -26q33 -19 40 -19q12 0 15.5 8t3.5 30v7q0 17 21 17h31q18 0 16 -22l-2 -32q-2 -40 -25 -60t-55 -20t-58 16l-43 26q-33 19 -40 19z" />
    <glyph glyph-name="Ograve" unicode="&#xd2;" horiz-adv-x="597" 
d="M250 747l-76 111q-6 8 -3.5 14t12.5 6h62q16 0 26 -19l59 -106q10 -19 -9 -19h-47q-15 0 -24 13zM71 146v388q0 68 53.5 111t173.5 43t174 -43t54 -111v-388q0 -68 -54 -111t-174 -43t-173.5 43t-53.5 111zM428 162v356q0 87 -130 87q-129 0 -129 -87v-356q0 -87 129 -87
q130 0 130 87z" />
    <glyph glyph-name="Oacute" unicode="&#xd3;" horiz-adv-x="597" 
d="M410 859l-77 -112q-7 -12 -24 -12h-46q-20 0 -10 18l59 107q10 18 26 18h62q22 0 10 -19zM71 146v388q0 68 53.5 111t173.5 43t174 -43t54 -111v-388q0 -68 -54 -111t-174 -43t-173.5 43t-53.5 111zM428 162v356q0 87 -130 87q-129 0 -129 -87v-356q0 -87 129 -87
q130 0 130 87z" />
    <glyph glyph-name="Ocircumflex" unicode="&#xd4;" horiz-adv-x="597" 
d="M298 820l-41 -67q-10 -18 -27 -18h-45q-10 0 -12.5 5.5t2.5 12.5l75 106q14 19 30 19h35q16 0 30 -19l75 -106q6 -7 3 -12.5t-13 -5.5h-45q-15 0 -26 18zM71 146v388q0 68 53.5 111t173.5 43t174 -43t54 -111v-388q0 -68 -54 -111t-174 -43t-173.5 43t-53.5 111zM428 162
v356q0 87 -130 87q-129 0 -129 -87v-356q0 -87 129 -87q130 0 130 87z" />
    <glyph glyph-name="Otilde" unicode="&#xd5;" horiz-adv-x="597" 
d="M71 146v388q0 68 53.5 111t173.5 43t174 -43t54 -111v-388q0 -68 -54 -111t-174 -43t-173.5 43t-53.5 111zM428 162v356q0 87 -130 87q-129 0 -129 -87v-356q0 -87 129 -87q130 0 130 87zM230 805q-13 0 -16 -7.5t-3 -30.5v-7q0 -17 -20 -17h-32q-18 0 -16 22l2 32
q2 40 24.5 60t54.5 20q33 0 59 -16l43 -26q33 -19 40 -19q12 0 15.5 8t3.5 30v7q0 17 21 17h31q18 0 16 -22l-2 -32q-2 -40 -24.5 -60t-55.5 -20q-32 0 -58 16l-43 26q-33 19 -40 19z" />
    <glyph glyph-name="Odieresis" unicode="&#xd6;" horiz-adv-x="597" 
d="M71 146v388q0 68 53.5 111t173.5 43t174 -43t54 -111v-388q0 -68 -54 -111t-174 -43t-173.5 43t-53.5 111zM428 162v356q0 87 -130 87q-129 0 -129 -87v-356q0 -87 129 -87q130 0 130 87zM273 853v-95q0 -19 -18 -19h-35q-18 0 -18 19v95q0 20 18 20h35q18 0 18 -20z
M394 853v-95q0 -19 -18 -19h-35q-18 0 -18 19v95q0 20 18 20h35q18 0 18 -20z" />
    <glyph glyph-name="multiply" unicode="&#xd7;" horiz-adv-x="543" 
d="M334 149l-78 134l-135 -77q-17 -10 -26 7l-20 37q-10 16 7 26l135 77l-78 135q-9 16 6 26l36 22q16 10 26 -8l78 -135l136 78q16 9 25 -6l21 -37q10 -17 -7 -27l-136 -78l78 -134q10 -16 -7 -26l-36 -21q-15 -10 -25 7z" />
    <glyph glyph-name="Oslash" unicode="&#xd8;" horiz-adv-x="597" 
d="M71 145v388q0 68 53.5 111t173.5 43q87 0 142 -25l10 19q0 1 3.5 7t5 8.5t5 7t8 6t10.5 1.5h18q19 0 4 -30l-23 -44q45 -39 45 -104v-388q0 -68 -54 -111t-174 -43q-89 0 -146 26l-9 -18q-16 -30 -33 -30h-16q-20 0 -5 30l23 45q-41 38 -41 101zM428 161v356q0 7 -2 17
l-230 -434q32 -26 102 -26q130 0 130 87zM169 161v-10l228 430q-34 23 -99 23q-129 0 -129 -87v-356z" />
    <glyph glyph-name="Ugrave" unicode="&#xd9;" horiz-adv-x="608" 
d="M262 747l-76 111q-6 8 -3.5 14t12.5 6h62q16 0 26 -19l59 -106q10 -19 -9 -19h-47q-15 0 -24 13zM174 660v-498q0 -87 129 -87q131 0 131 87v498q0 20 18 20h61q18 0 18 -20v-514q0 -68 -54 -111t-174 -43t-173.5 43t-53.5 111v514q0 20 19 20h61q18 0 18 -20z" />
    <glyph glyph-name="Uacute" unicode="&#xda;" horiz-adv-x="608" 
d="M174 660v-498q0 -87 129 -87q131 0 131 87v498q0 20 18 20h61q18 0 18 -20v-514q0 -68 -54 -111t-174 -43t-173.5 43t-53.5 111v514q0 20 19 20h61q18 0 18 -20zM423 859l-77 -112q-7 -12 -24 -12h-46q-20 0 -10 18l59 107q10 18 26 18h62q22 0 10 -19z" />
    <glyph glyph-name="Ucircumflex" unicode="&#xdb;" horiz-adv-x="608" 
d="M304 820l-41 -67q-10 -18 -27 -18h-45q-10 0 -12.5 5.5t2.5 12.5l75 106q14 19 30 19h35q16 0 30 -19l75 -106q6 -7 3 -12.5t-13 -5.5h-45q-15 0 -26 18zM174 660v-498q0 -87 129 -87q131 0 131 87v498q0 20 18 20h61q18 0 18 -20v-514q0 -68 -54 -111t-174 -43
t-173.5 43t-53.5 111v514q0 20 19 20h61q18 0 18 -20z" />
    <glyph glyph-name="Udieresis" unicode="&#xdc;" horiz-adv-x="608" 
d="M174 660v-498q0 -87 129 -87q131 0 131 87v498q0 20 18 20h61q18 0 18 -20v-514q0 -68 -54 -111t-174 -43t-173.5 43t-53.5 111v514q0 20 19 20h61q18 0 18 -20zM279 853v-95q0 -19 -18 -19h-35q-18 0 -18 19v95q0 20 18 20h35q18 0 18 -20zM400 853v-95q0 -19 -18 -19
h-35q-18 0 -18 19v95q0 20 18 20h35q18 0 18 -20z" />
    <glyph glyph-name="Yacute" unicode="&#xdd;" horiz-adv-x="529" 
d="M124 661l125 -264l16 -44q7 27 16 44l133 264q10 19 22 19h61q23 0 13 -19l-196 -391v-251q0 -19 -18 -19h-61q-19 0 -19 19v240l-198 402q-10 19 14 19h69q13 0 23 -19zM392 859l-77 -112q-7 -12 -24 -12h-46q-20 0 -10 18l59 107q10 18 26 18h62q22 0 10 -19z" />
    <glyph glyph-name="Thorn" unicode="&#xde;" horiz-adv-x="572" 
d="M180 661v-165h123q120 0 173.5 -42.5t53.5 -110.5v-95q0 -68 -53.5 -110.5t-173.5 -42.5h-123v-76q0 -19 -19 -19h-61q-18 0 -18 19v642q0 19 18 19h61q19 0 19 -19zM303 415h-123v-239h123q130 0 130 88v63q0 88 -130 88z" />
    <glyph glyph-name="germandbls" unicode="&#xdf;" horiz-adv-x="619" 
d="M197 564v-544q0 -20 -19 -20h-58q-19 0 -19 20v396h-59q-18 0 -18 20v35q0 17 18 19l53 4h6v77q0 63 50 100t157 37q207 0 207 -137v-37q0 -62 -73 -89l-65 -24q-41 -15 -41 -36v-5q0 -25 45 -44l117 -49q91 -39 91 -105v-55q0 -64 -39.5 -99.5t-133.5 -35.5
q-93 0 -128 32.5t-35 98.5v8q0 20 19 20h40q19 0 19 -20v-11q0 -32 18.5 -48t66.5 -16t67 16.5t19 47.5v44q0 30 -52 51l-111 47q-24 10 -39.5 20t-30 33t-14.5 53v20q0 33 21.5 55t49.5 32l52 19q49 17 49 54v16q0 70 -115 70t-115 -70z" />
    <glyph glyph-name="agrave" unicode="&#xe0;" horiz-adv-x="510" 
d="M67 354v15q0 135 189 135t189 -135v-349q0 -20 -18 -20h-52q-18 0 -19 20l-2 29q-72 -57 -158 -57q-67 0 -104 34.5t-37 86.5v48q0 52 36 86.5t103 34.5h158v77q0 33 -21.5 50.5t-75.5 17.5q-55 0 -77 -16t-22 -49v-8q0 -20 -19 -20h-52q-18 0 -18 20zM220 71
q67 0 132 51v86h-138q-36 0 -51 -15t-15 -46v-20q0 -56 72 -56zM229 577l-76 112q-14 19 9 19h62q16 0 26 -18l59 -107q10 -18 -9 -18h-47q-14 0 -24 12z" />
    <glyph glyph-name="aacute" unicode="&#xe1;" horiz-adv-x="510" 
d="M67 354v15q0 135 189 135t189 -135v-349q0 -20 -18 -20h-52q-18 0 -19 20l-2 29q-72 -57 -158 -57q-67 0 -104 34.5t-37 86.5v48q0 52 36 86.5t103 34.5h158v77q0 33 -21.5 50.5t-75.5 17.5q-55 0 -77 -16t-22 -49v-8q0 -20 -19 -20h-52q-18 0 -18 20zM220 71
q67 0 132 51v86h-138q-36 0 -51 -15t-15 -46v-20q0 -56 72 -56zM357 689l-76 -112q-7 -12 -24 -12h-46q-20 0 -10 18l59 107q10 18 26 18h62q23 0 9 -19z" />
    <glyph glyph-name="acircumflex" unicode="&#xe2;" horiz-adv-x="510" 
d="M67 354v15q0 135 189 135t189 -135v-349q0 -20 -18 -20h-52q-18 0 -19 20l-2 29q-72 -57 -158 -57q-67 0 -104 34.5t-37 86.5v48q0 52 36 86.5t103 34.5h158v77q0 33 -21.5 50.5t-75.5 17.5q-55 0 -77 -16t-22 -49v-8q0 -20 -19 -20h-52q-18 0 -18 20zM220 71
q67 0 132 51v86h-138q-36 0 -51 -15t-15 -46v-20q0 -56 72 -56zM257 650l-42 -67q-11 -18 -26 -18h-45q-10 0 -12.5 5.5t2.5 12.5l75 106q14 19 30 19h35q16 0 30 -19l75 -106q5 -7 2.5 -12.5t-12.5 -5.5h-45q-15 0 -26 18z" />
    <glyph glyph-name="atilde" unicode="&#xe3;" horiz-adv-x="510" 
d="M67 354v15q0 135 189 135t189 -135v-349q0 -20 -18 -20h-52q-18 0 -19 20l-2 29q-72 -57 -158 -57q-67 0 -104 34.5t-37 86.5v48q0 52 36 86.5t103 34.5h158v77q0 33 -21.5 50.5t-75.5 17.5q-55 0 -77 -16t-22 -49v-8q0 -20 -19 -20h-52q-18 0 -18 20zM220 71
q67 0 132 51v86h-138q-36 0 -51 -15t-15 -46v-20q0 -56 72 -56zM190 628q-13 0 -16 -7.5t-3 -30.5v-7q0 -17 -20 -17h-32q-18 0 -16 22l2 32q2 40 24.5 60t54.5 20q33 0 59 -16l43 -26q33 -19 40 -19q12 0 15.5 8t3.5 30v7q0 17 21 17h31q18 0 16 -22l-2 -32
q-2 -40 -24.5 -60t-55.5 -20q-32 0 -58 16l-43 26q-33 19 -40 19z" />
    <glyph glyph-name="adieresis" unicode="&#xe4;" horiz-adv-x="510" 
d="M67 354v15q0 135 189 135t189 -135v-349q0 -20 -18 -20h-52q-18 0 -19 20l-2 29q-72 -57 -158 -57q-67 0 -104 34.5t-37 86.5v48q0 52 36 86.5t103 34.5h158v77q0 33 -21.5 50.5t-75.5 17.5q-55 0 -77 -16t-22 -49v-8q0 -20 -19 -20h-52q-18 0 -18 20zM220 71
q67 0 132 51v86h-138q-36 0 -51 -15t-15 -46v-20q0 -56 72 -56zM231 685v-95q0 -19 -18 -19h-35q-19 0 -19 19v95q0 19 19 19h35q18 0 18 -19zM352 685v-95q0 -19 -18 -19h-35q-19 0 -19 19v95q0 19 19 19h35q18 0 18 -19z" />
    <glyph glyph-name="aring" unicode="&#xe5;" horiz-adv-x="510" 
d="M67 354v15q0 135 189 135t189 -135v-349q0 -20 -18 -20h-52q-18 0 -19 20l-2 29q-72 -57 -158 -57q-67 0 -104 34.5t-37 86.5v48q0 52 36 86.5t103 34.5h158v77q0 33 -21.5 50.5t-75.5 17.5q-55 0 -77 -16t-22 -49v-8q0 -20 -19 -20h-52q-18 0 -18 20zM220 71
q67 0 132 51v86h-138q-36 0 -51 -15t-15 -46v-20q0 -56 72 -56zM354 653v-33q0 -32 -24.5 -51t-71.5 -19t-71.5 19t-24.5 51v33q0 32 24.5 51.5t71.5 19.5t71.5 -19.5t24.5 -51.5zM302 630v13q0 33 -44 33t-44 -33v-13q0 -33 44 -33t44 33z" />
    <glyph glyph-name="ae" unicode="&#xe6;" horiz-adv-x="787" 
d="M734 367v-117q0 -18 -18 -18h-272v-102q0 -33 22.5 -49.5t77.5 -16.5q101 0 101 68v13q0 19 18 19h49q19 0 19 -19v-17q0 -136 -187 -136q-134 0 -173 66q-82 -66 -175 -66q-70 0 -105.5 34t-35.5 87v42q0 53 36.5 87t102.5 34h157v94q0 64 -97 64q-54 0 -76.5 -17
t-22.5 -50v-13q0 -19 -18 -19h-52q-19 0 -19 19v16q0 134 190 134q105 0 140 -53q43 53 148 53q190 0 190 -137zM219 67q60 0 132 56v88h-141q-62 0 -62 -60v-26q0 -28 18.5 -43t52.5 -15zM444 363v-66h201v66q0 69 -101 69q-100 0 -100 -69z" />
    <glyph glyph-name="ccedilla" unicode="&#xe7;" horiz-adv-x="485" 
d="M236 -52h34q37 0 61 -20t24 -59q0 -40 -24 -60t-61 -20h-113q-19 0 -19 19v20q0 18 19 18h99q32 0 32 23q0 22 -32 22h-66q-18 0 -23.5 6t-2.5 18l21 82q-125 21 -125 132v238q0 137 192 137q191 0 191 -137v-18q0 -19 -18 -19h-54q-19 0 -19 19v11q0 33 -22 49.5
t-77 16.5q-54 0 -76 -16.5t-22 -49.5v-224q0 -33 22 -49.5t76 -16.5q55 0 77 16.5t22 49.5v20q0 19 19 19h54q18 0 18 -19v-27q0 -137 -192 -137h-3z" />
    <glyph glyph-name="egrave" unicode="&#xe8;" horiz-adv-x="495" 
d="M442 367v-122q0 -18 -17 -18h-272v-92q0 -33 21.5 -50t78.5 -17t78.5 17t21.5 50v11q0 19 19 19h51q19 0 19 -19v-17q0 -137 -191 -137t-191 137v238q0 137 193 137q189 0 189 -137zM153 361v-63h200v63q0 67 -100 67t-100 -67zM212 577l-76 112q-14 19 9 19h62
q16 0 26 -18l59 -107q10 -18 -9 -18h-47q-14 0 -24 12z" />
    <glyph glyph-name="eacute" unicode="&#xe9;" horiz-adv-x="495" 
d="M361 689l-76 -112q-7 -12 -24 -12h-46q-20 0 -10 18l59 107q10 18 26 18h62q23 0 9 -19zM442 367v-122q0 -18 -17 -18h-272v-92q0 -33 21.5 -50t78.5 -17t78.5 17t21.5 50v11q0 19 19 19h51q19 0 19 -19v-17q0 -137 -191 -137t-191 137v238q0 137 193 137q189 0 189 -137
zM153 361v-63h200v63q0 67 -100 67t-100 -67z" />
    <glyph glyph-name="ecircumflex" unicode="&#xea;" horiz-adv-x="495" 
d="M253 650l-42 -67q-11 -18 -26 -18h-45q-10 0 -12.5 5.5t2.5 12.5l75 106q14 19 30 19h35q16 0 30 -19l75 -106q5 -7 2.5 -12.5t-12.5 -5.5h-45q-15 0 -26 18zM442 367v-122q0 -18 -17 -18h-272v-92q0 -33 21.5 -50t78.5 -17t78.5 17t21.5 50v11q0 19 19 19h51
q19 0 19 -19v-17q0 -137 -191 -137t-191 137v238q0 137 193 137q189 0 189 -137zM153 361v-63h200v63q0 67 -100 67t-100 -67z" />
    <glyph glyph-name="edieresis" unicode="&#xeb;" horiz-adv-x="495" 
d="M227 685v-95q0 -19 -18 -19h-35q-19 0 -19 19v95q0 19 19 19h35q18 0 18 -19zM348 685v-95q0 -19 -18 -19h-35q-19 0 -19 19v95q0 19 19 19h35q18 0 18 -19zM442 367v-122q0 -18 -17 -18h-272v-92q0 -33 21.5 -50t78.5 -17t78.5 17t21.5 50v11q0 19 19 19h51q19 0 19 -19
v-17q0 -137 -191 -137t-191 137v238q0 137 193 137q189 0 189 -137zM153 361v-63h200v63q0 67 -100 67t-100 -67z" />
    <glyph glyph-name="igrave" unicode="&#xec;" 
d="M166 476v-457q0 -19 -18 -19h-59q-18 0 -18 19v457q0 20 18 20h59q18 0 18 -20zM72 577l-76 112q-14 19 9 19h62q16 0 26 -18l59 -107q10 -18 -9 -18h-47q-14 0 -24 12z" />
    <glyph glyph-name="iacute" unicode="&#xed;" 
d="M237 689l-76 -112q-7 -12 -24 -12h-46q-20 0 -10 18l59 107q10 18 26 18h62q23 0 9 -19zM166 476v-457q0 -19 -18 -19h-59q-18 0 -18 19v457q0 20 18 20h59q18 0 18 -20z" />
    <glyph glyph-name="icircumflex" unicode="&#xee;" 
d="M121 650l-42 -67q-11 -18 -26 -18h-45q-10 0 -12.5 5.5t2.5 12.5l75 106q14 19 30 19h35q16 0 30 -19l75 -106q5 -7 2.5 -12.5t-12.5 -5.5h-45q-15 0 -26 18zM166 476v-457q0 -19 -18 -19h-59q-18 0 -18 19v457q0 20 18 20h59q18 0 18 -20z" />
    <glyph glyph-name="idieresis" unicode="&#xef;" 
d="M95 685v-95q0 -19 -18 -19h-35q-19 0 -19 19v95q0 19 19 19h35q18 0 18 -19zM216 685v-95q0 -19 -18 -19h-35q-19 0 -19 19v95q0 19 19 19h35q18 0 18 -19zM166 476v-457q0 -19 -18 -19h-59q-18 0 -18 19v457q0 20 18 20h59q18 0 18 -20z" />
    <glyph glyph-name="eth" unicode="&#xf0;" horiz-adv-x="561" 
d="M278 594l62 28q-24 19 -78 19h-93q-19 0 -19 19v29q0 19 19 19h93q108 0 154 -43l48 24q17 9 26 -7l7 -12q8 -15 -8 -24l-44 -22q10 -21 10 -52v-444q0 -136 -195 -136q-102 0 -151 36t-49 100v240q0 64 35.5 100t106.5 36q90 0 163 -58v107q0 13 -6 23l-57 -25
q-17 -8 -25 7l-7 11q-11 16 8 25zM365 136v233q-67 52 -135 52q-75 0 -75 -66v-219q0 -68 105 -68t105 68z" />
    <glyph glyph-name="ntilde" unicode="&#xf1;" horiz-adv-x="536" 
d="M90 496h53q18 0 19 -19l2 -32q69 59 166 59q68 0 104.5 -35.5t36.5 -92.5v-356q0 -20 -18 -20h-58q-19 0 -19 20v333q0 66 -74 66q-70 0 -136 -51v-348q0 -20 -18 -20h-58q-19 0 -19 20v457q0 19 19 19zM197 634q-13 0 -16 -7.5t-3 -30.5v-7q0 -17 -20 -17h-32
q-18 0 -16 22l2 32q2 40 24.5 60t54.5 20q33 0 59 -16l43 -26q33 -19 40 -19q12 0 15.5 8t3.5 30v7q0 17 21 17h31q18 0 16 -22l-2 -32q-2 -40 -25 -60t-55 -20t-58 16l-43 26q-33 19 -40 19z" />
    <glyph glyph-name="ograve" unicode="&#xf2;" horiz-adv-x="520" 
d="M60 129v238q0 64 49 100.5t151 36.5t151 -36.5t49 -100.5v-238q0 -64 -49 -100.5t-151 -36.5t-151 36.5t-49 100.5zM365 137v222q0 67 -105 67t-105 -67v-222q0 -67 105 -67t105 67zM219 577l-76 112q-14 19 9 19h62q16 0 26 -18l59 -107q10 -18 -9 -18h-47q-14 0 -24 12
z" />
    <glyph glyph-name="oacute" unicode="&#xf3;" horiz-adv-x="520" 
d="M376 689l-76 -112q-7 -12 -24 -12h-46q-20 0 -10 18l59 107q10 18 26 18h62q23 0 9 -19zM60 129v238q0 64 49 100.5t151 36.5t151 -36.5t49 -100.5v-238q0 -64 -49 -100.5t-151 -36.5t-151 36.5t-49 100.5zM365 137v222q0 67 -105 67t-105 -67v-222q0 -67 105 -67t105 67
z" />
    <glyph glyph-name="ocircumflex" unicode="&#xf4;" horiz-adv-x="520" 
d="M262 650l-42 -67q-11 -18 -26 -18h-45q-10 0 -12.5 5.5t2.5 12.5l75 106q14 19 30 19h35q16 0 30 -19l75 -106q5 -7 2.5 -12.5t-12.5 -5.5h-45q-15 0 -26 18zM60 129v238q0 64 49 100.5t151 36.5t151 -36.5t49 -100.5v-238q0 -64 -49 -100.5t-151 -36.5t-151 36.5
t-49 100.5zM365 137v222q0 67 -105 67t-105 -67v-222q0 -67 105 -67t105 67z" />
    <glyph glyph-name="otilde" unicode="&#xf5;" horiz-adv-x="520" 
d="M60 129v238q0 64 49 100.5t151 36.5t151 -36.5t49 -100.5v-238q0 -64 -49 -100.5t-151 -36.5t-151 36.5t-49 100.5zM365 137v222q0 67 -105 67t-105 -67v-222q0 -67 105 -67t105 67zM193 628q-13 0 -16 -7.5t-3 -30.5v-7q0 -17 -20 -17h-32q-18 0 -16 22l2 32
q2 40 24.5 60t54.5 20q33 0 59 -16l43 -26q33 -19 40 -19q12 0 15.5 8t3.5 30v7q0 17 21 17h31q18 0 16 -22l-2 -32q-2 -40 -25 -60t-55 -20t-58 16l-43 26q-33 19 -40 19z" />
    <glyph glyph-name="odieresis" unicode="&#xf6;" horiz-adv-x="520" 
d="M236 685v-95q0 -19 -18 -19h-35q-19 0 -19 19v95q0 19 19 19h35q18 0 18 -19zM357 685v-95q0 -19 -18 -19h-35q-19 0 -19 19v95q0 19 19 19h35q18 0 18 -19zM60 129v238q0 64 49 100.5t151 36.5t151 -36.5t49 -100.5v-238q0 -64 -49 -100.5t-151 -36.5t-151 36.5
t-49 100.5zM365 137v222q0 67 -105 67t-105 -67v-222q0 -67 105 -67t105 67z" />
    <glyph glyph-name="divide" unicode="&#xf7;" horiz-adv-x="585" 
d="M89 350h406q19 0 19 -18v-43q0 -19 -19 -19h-405q-19 0 -19 19v43q0 18 18 18zM341 180v-80q0 -19 -18 -19h-60q-19 0 -19 19v80q0 19 19 19h60q18 0 18 -19zM341 524v-80q0 -19 -18 -19h-60q-19 0 -19 19v80q0 19 19 19h60q18 0 18 -19z" />
    <glyph glyph-name="oslash" unicode="&#xf8;" horiz-adv-x="520" 
d="M60 129v238q0 64 49 100.5t151 36.5q62 0 106 -14l5 9q1 1 4 7t4 7.5l4 6t5.5 5.5t6 2.5t8.5 1.5h20q19 0 2 -30l-17 -30q52 -35 52 -102v-238q0 -64 -49 -100.5t-151 -36.5q-60 0 -108 15l-4 -8l-3.5 -7t-3.5 -6.5t-3 -5t-3.5 -4.5t-3.5 -3t-4.5 -2.5t-5.5 -1t-7 -0.5
h-17q-21 0 -3 30l16 28q-50 34 -50 102zM365 137v222q0 15 -4 24l-168 -303q23 -10 67 -10q105 0 105 67zM155 137q0 -16 3 -23l167 302q-23 10 -65 10q-105 0 -105 -67v-222z" />
    <glyph glyph-name="ugrave" unicode="&#xf9;" horiz-adv-x="530" 
d="M368 19l-2 30q-67 -57 -160 -57q-67 0 -104 35t-37 92v357q0 20 18 20h58q19 0 19 -20v-333q0 -66 74 -66q68 0 130 50v349q0 20 18 20h59q18 0 18 -20v-457q0 -19 -18 -19h-54q-18 0 -19 19zM225 577l-76 112q-14 19 9 19h62q16 0 26 -18l59 -107q10 -18 -9 -18h-47
q-14 0 -24 12z" />
    <glyph glyph-name="uacute" unicode="&#xfa;" horiz-adv-x="530" 
d="M377 689l-76 -112q-7 -12 -24 -12h-46q-20 0 -10 18l59 107q10 18 26 18h62q23 0 9 -19zM368 19l-2 30q-67 -57 -160 -57q-67 0 -104 35t-37 92v357q0 20 18 20h58q19 0 19 -20v-333q0 -66 74 -66q68 0 130 50v349q0 20 18 20h59q18 0 18 -20v-457q0 -19 -18 -19h-54
q-18 0 -19 19z" />
    <glyph glyph-name="ucircumflex" unicode="&#xfb;" horiz-adv-x="530" 
d="M258 650l-42 -67q-11 -18 -26 -18h-45q-10 0 -12.5 5.5t2.5 12.5l75 106q14 19 30 19h35q16 0 30 -19l75 -106q5 -7 2.5 -12.5t-12.5 -5.5h-45q-15 0 -26 18zM368 19l-2 30q-67 -57 -160 -57q-67 0 -104 35t-37 92v357q0 20 18 20h58q19 0 19 -20v-333q0 -66 74 -66
q68 0 130 50v349q0 20 18 20h59q18 0 18 -20v-457q0 -19 -18 -19h-54q-18 0 -19 19z" />
    <glyph glyph-name="udieresis" unicode="&#xfc;" horiz-adv-x="530" 
d="M238 685v-95q0 -19 -18 -19h-35q-19 0 -19 19v95q0 19 19 19h35q18 0 18 -19zM359 685v-95q0 -19 -18 -19h-35q-19 0 -19 19v95q0 19 19 19h35q18 0 18 -19zM368 19l-2 30q-67 -57 -160 -57q-67 0 -104 35t-37 92v357q0 20 18 20h58q19 0 19 -20v-333q0 -66 74 -66
q68 0 130 50v349q0 20 18 20h59q18 0 18 -20v-457q0 -19 -18 -19h-54q-18 0 -19 19z" />
    <glyph glyph-name="yacute" unicode="&#xfd;" horiz-adv-x="450" 
d="M113 476l97 -289q4 -12 7.5 -28t5.5 -29l2 -12q7 32 18 67l99 291q6 20 22 20h54q23 0 17 -20l-226 -661q-6 -19 -21 -19h-43q-24 0 -18 19l56 177l-168 484q-6 20 17 20h59q15 0 22 -20zM347 689l-76 -112q-7 -12 -24 -12h-46q-20 0 -10 18l59 107q10 18 26 18h62
q23 0 9 -19z" />
    <glyph glyph-name="thorn" unicode="&#xfe;" horiz-adv-x="531" 
d="M166 680v-234q71 58 163 58q71 0 106.5 -36t35.5 -100v-241q0 -63 -35.5 -99t-106.5 -36q-92 0 -163 56v-233q0 -19 -18 -19h-59q-18 0 -18 19v865q0 19 18 19h58q19 0 19 -19zM376 141v214q0 66 -75 66q-71 0 -135 -52v-243q68 -52 135 -52q75 0 75 67z" />
    <glyph glyph-name="ydieresis" unicode="&#xff;" horiz-adv-x="450" 
d="M113 476l97 -289q4 -12 7.5 -28t5.5 -29l2 -12q7 32 18 67l99 291q6 20 22 20h54q23 0 17 -20l-226 -661q-6 -19 -21 -19h-43q-24 0 -18 19l56 177l-168 484q-6 20 17 20h59q15 0 22 -20zM204 685v-95q0 -19 -18 -19h-35q-19 0 -19 19v95q0 19 19 19h35q18 0 18 -19z
M325 685v-95q0 -19 -18 -19h-35q-19 0 -19 19v95q0 19 19 19h35q18 0 18 -19z" />
    <glyph glyph-name="Amacron" unicode="&#x100;" horiz-adv-x="538" 
d="M238 680h62q18 0 24 -19l194 -642q6 -19 -15 -19h-63q-17 0 -22 19l-47 155h-211l-46 -155q-5 -19 -22 -19h-58q-20 0 -14 19l194 642q6 19 24 19zM350 252l-56 182q-8 24 -17 77t-10 69q0 -1 -4.5 -29.5t-11 -62t-12.5 -52.5l-57 -184h168zM147 836h243q19 0 19 -18v-36
q0 -19 -19 -19h-243q-19 0 -19 19v36q0 18 19 18z" />
    <glyph glyph-name="amacron" unicode="&#x101;" horiz-adv-x="510" 
d="M67 354v15q0 135 189 135t189 -135v-349q0 -20 -18 -20h-52q-18 0 -19 20l-2 29q-72 -57 -158 -57q-67 0 -104 34.5t-37 86.5v48q0 52 36 86.5t103 34.5h158v77q0 33 -21.5 50.5t-75.5 17.5q-55 0 -77 -16t-22 -49v-8q0 -20 -19 -20h-52q-18 0 -18 20zM220 71
q67 0 132 51v86h-138q-36 0 -51 -15t-15 -46v-20q0 -56 72 -56zM134 659h242q19 0 19 -18v-36q0 -18 -19 -18h-242q-20 0 -20 18v36q0 18 20 18z" />
    <glyph glyph-name="Abreve" unicode="&#x102;" horiz-adv-x="538" 
d="M238 680h62q18 0 24 -19l194 -642q6 -19 -15 -19h-63q-17 0 -22 19l-47 155h-211l-46 -155q-5 -19 -22 -19h-58q-20 0 -14 19l194 642q6 19 24 19zM350 252l-56 182q-8 24 -17 77t-10 69q0 -1 -4.5 -29.5t-11 -62t-12.5 -52.5l-57 -184h168zM211 864v-18
q0 -28 12.5 -42.5t45.5 -14.5t45.5 14.5t12.5 42.5v18q0 16 17 16h35q17 0 17 -16v-15q0 -118 -129 -118q-126 0 -126 118v15q0 16 17 16h36q17 0 17 -16z" />
    <glyph glyph-name="abreve" unicode="&#x103;" horiz-adv-x="510" 
d="M67 354v15q0 135 189 135t189 -135v-349q0 -20 -18 -20h-52q-18 0 -19 20l-2 29q-72 -57 -158 -57q-67 0 -104 34.5t-37 86.5v48q0 52 36 86.5t103 34.5h158v77q0 33 -21.5 50.5t-75.5 17.5q-55 0 -77 -16t-22 -49v-8q0 -20 -19 -20h-52q-18 0 -18 20zM220 71
q67 0 132 51v86h-138q-36 0 -51 -15t-15 -46v-20q0 -56 72 -56zM206 684v-17q0 -58 58 -58q33 0 45.5 15t12.5 43v17q0 16 17 16h35q17 0 17 -16v-15q0 -117 -129 -117q-125 0 -125 117v15q0 16 17 16h35q17 0 17 -16z" />
    <glyph glyph-name="Aogonek" unicode="&#x104;" horiz-adv-x="538" 
d="M238 680h62q18 0 24 -19l194 -642q6 -19 -15 -19h-19q-57 0 -57 -55q0 -41 49 -41h28q19 0 19 -18v-28q0 -19 -25 -19h-46q-39 0 -69 21.5t-30 67.5q0 23 14.5 54.5t45.5 52.5l-42 139h-211l-46 -155q-5 -19 -22 -19h-58q-20 0 -14 19l194 642q6 19 24 19zM350 252
l-56 182q-21 67 -27 146q0 -1 -5 -30t-11.5 -62.5t-11.5 -51.5l-57 -184h168z" />
    <glyph glyph-name="aogonek" unicode="&#x105;" horiz-adv-x="510" 
d="M67 354v15q0 135 189 135t189 -135v-349q0 -20 -18 -20h-8q-26 -1 -39 -17t-13 -39q0 -40 48 -40h14q19 0 19 -18v-28q0 -19 -24 -19h-37q-37 0 -65.5 23t-28.5 66q0 61 62 101l-1 20q-72 -57 -158 -57q-67 0 -104 34.5t-37 86.5v48q0 52 36 86.5t103 34.5h158v77
q0 33 -21.5 50.5t-75.5 17.5q-55 0 -77 -16t-22 -49v-8q0 -20 -19 -20h-52q-18 0 -18 20zM220 71q67 0 132 51v86h-138q-36 0 -51 -15t-15 -46v-20q0 -56 72 -56z" />
    <glyph glyph-name="Cacute" unicode="&#x106;" horiz-adv-x="559" 
d="M513 209v-63q0 -154 -221 -154t-221 154v388q0 154 221 154t221 -154v-49q0 -20 -18 -20h-58q-19 0 -19 20v33q0 87 -125 87q-124 0 -124 -87v-356q0 -87 124 -87q125 0 125 87v47q0 19 19 19h58q18 0 18 -19zM403 859l-77 -112q-7 -12 -24 -12h-46q-20 0 -10 18l59 107
q10 18 26 18h62q22 0 10 -19z" />
    <glyph glyph-name="cacute" unicode="&#x107;" horiz-adv-x="485" 
d="M366 689l-76 -112q-7 -12 -24 -12h-46q-20 0 -10 18l59 107q10 18 26 18h62q23 0 9 -19zM252 504q191 0 191 -137v-18q0 -19 -18 -19h-54q-19 0 -19 19v11q0 33 -22 49.5t-77 16.5q-54 0 -76 -16.5t-22 -49.5v-224q0 -33 22 -49.5t76 -16.5q55 0 77 16.5t22 49.5v20
q0 19 19 19h54q18 0 18 -19v-27q0 -137 -192 -137q-191 0 -191 137v238q0 137 192 137z" />
    <glyph glyph-name="Ccircumflex" unicode="&#x108;" horiz-adv-x="559" 
d="M513 209v-63q0 -154 -221 -154t-221 154v388q0 154 221 154t221 -154v-49q0 -20 -18 -20h-58q-19 0 -19 20v33q0 87 -125 87q-124 0 -124 -87v-356q0 -87 124 -87q125 0 125 87v47q0 19 19 19h58q18 0 18 -19zM283 820l-41 -67q-10 -18 -27 -18h-45q-10 0 -12.5 5.5
t2.5 12.5l75 106q14 19 30 19h35q16 0 30 -19l75 -106q5 -7 2.5 -12.5t-12.5 -5.5h-45q-15 0 -26 18z" />
    <glyph glyph-name="ccircumflex" unicode="&#x109;" horiz-adv-x="485" 
d="M243 650l-42 -67q-11 -18 -26 -18h-45q-10 0 -12.5 5.5t2.5 12.5l75 106q14 19 30 19h35q16 0 30 -19l75 -106q5 -7 2.5 -12.5t-12.5 -5.5h-45q-15 0 -26 18zM252 504q191 0 191 -137v-18q0 -19 -18 -19h-54q-19 0 -19 19v11q0 33 -22 49.5t-77 16.5q-54 0 -76 -16.5
t-22 -49.5v-224q0 -33 22 -49.5t76 -16.5q55 0 77 16.5t22 49.5v20q0 19 19 19h54q18 0 18 -19v-27q0 -137 -192 -137q-191 0 -191 137v238q0 137 192 137z" />
    <glyph glyph-name="Cdotaccent" unicode="&#x10a;" horiz-adv-x="559" 
d="M327 839v-80q0 -19 -18 -19h-60q-18 0 -18 19v80q0 19 18 19h60q18 0 18 -19zM513 209v-63q0 -154 -221 -154t-221 154v388q0 154 221 154t221 -154v-49q0 -20 -18 -20h-58q-19 0 -19 20v33q0 87 -125 87q-124 0 -124 -87v-356q0 -87 124 -87q125 0 125 87v47q0 19 19 19
h58q18 0 18 -19z" />
    <glyph glyph-name="cdotaccent" unicode="&#x10b;" horiz-adv-x="485" 
d="M252 504q191 0 191 -137v-18q0 -19 -18 -19h-54q-19 0 -19 19v11q0 33 -22 49.5t-77 16.5q-54 0 -76 -16.5t-22 -49.5v-224q0 -33 22 -49.5t76 -16.5q55 0 77 16.5t22 49.5v20q0 19 19 19h54q18 0 18 -19v-27q0 -137 -192 -137q-191 0 -191 137v238q0 137 192 137z
M290 676v-79q0 -19 -18 -19h-60q-19 0 -19 19v79q0 19 19 19h60q18 0 18 -19z" />
    <glyph glyph-name="Ccaron" unicode="&#x10c;" horiz-adv-x="559" 
d="M513 209v-63q0 -154 -221 -154t-221 154v388q0 154 221 154t221 -154v-49q0 -20 -18 -20h-58q-19 0 -19 20v33q0 87 -125 87q-124 0 -124 -87v-356q0 -87 124 -87q125 0 125 87v47q0 19 19 19h58q18 0 18 -19zM238 859l41 -66l41 66q13 19 26 19h45q10 0 13 -5.5
t-3 -13.5l-75 -106q-13 -18 -30 -18h-35q-16 0 -30 19l-75 105q-6 8 -3 13.5t13 5.5h45q14 0 27 -19z" />
    <glyph glyph-name="ccaron" unicode="&#x10d;" horiz-adv-x="485" 
d="M201 689l42 -66l41 66q13 19 26 19h45q10 0 13 -5.5t-3 -13.5l-75 -106q-13 -18 -30 -18h-35q-16 0 -30 19l-75 105q-6 8 -3 13.5t13 5.5h45q13 0 26 -19zM252 504q191 0 191 -137v-18q0 -19 -18 -19h-54q-19 0 -19 19v11q0 33 -22 49.5t-77 16.5q-54 0 -76 -16.5
t-22 -49.5v-224q0 -33 22 -49.5t76 -16.5q55 0 77 16.5t22 49.5v20q0 19 19 19h54q18 0 18 -19v-27q0 -137 -192 -137q-191 0 -191 137v238q0 137 192 137z" />
    <glyph glyph-name="Dcaron" unicode="&#x10e;" horiz-adv-x="608" 
d="M309 0h-211q-16 0 -16 20v640q0 20 18 20h209q120 0 174 -43t54 -111v-372q0 -68 -54 -111t-174 -43zM309 597h-130v-514h130q130 0 130 87v340q0 87 -130 87zM260 859l41 -66l41 66q13 19 26 19h45q10 0 13 -5.5t-3 -13.5l-75 -106q-13 -18 -30 -18h-35q-16 0 -30 19
l-75 105q-6 8 -3 13.5t13 5.5h45q14 0 27 -19z" />
    <glyph glyph-name="dcaron" unicode="&#x10f;" horiz-adv-x="605" 
d="M534 681v29q0 19 19 19h43q19 0 19 -19v-34q0 -57 -42 -125q-8 -13 -25 -10l-33 8q-19 5 -9 26q3 6 8.5 18t7 16.5t5 13.5t4.5 16t2 18t1 24zM369 20l-2 30q-76 -58 -166 -58q-71 0 -106 36t-35 100v240q0 64 35 100t106 36q86 0 164 -57v232q0 20 18 20h58q19 0 19 -20
v-659q0 -20 -19 -20h-53q-18 0 -19 20zM155 353v-210q0 -65 74 -65q66 0 136 51v237q-67 52 -136 52q-74 0 -74 -65z" />
    <glyph glyph-name="Dcroat" unicode="&#x110;" horiz-adv-x="608" 
d="M309 0h-211q-16 0 -16 20v287h-56q-19 0 -19 18v36q0 18 19 18h56v281q0 20 18 20h209q120 0 174 -43t54 -111v-372q0 -68 -54 -111t-174 -43zM309 597h-130v-218h115q19 0 19 -18v-36q0 -18 -19 -18h-115v-224h130q130 0 130 87v340q0 87 -130 87z" />
    <glyph glyph-name="dcroat" unicode="&#x111;" horiz-adv-x="531" 
d="M369 20l-2 30q-76 -58 -166 -58q-71 0 -106 36t-35 100v240q0 64 35 100t106 36q86 0 164 -57v105h-127q-19 0 -19 18v31q0 18 19 18h127v60q0 20 18 20h58q19 0 19 -20v-60h35q19 0 19 -18v-31q0 -18 -19 -18h-35v-532q0 -20 -19 -20h-53q-18 0 -19 20zM155 353v-210
q0 -65 74 -65q66 0 136 51v237q-67 52 -136 52q-74 0 -74 -65z" />
    <glyph glyph-name="Emacron" unicode="&#x112;" horiz-adv-x="519" 
d="M453 0h-353q-18 0 -18 20v640q0 20 18 20h342q19 0 19 -19v-45q0 -19 -19 -19h-263v-202h245q20 0 20 -19v-43q0 -19 -20 -19h-245v-231h274q19 0 19 -18v-46q0 -19 -19 -19zM143 836h243q19 0 19 -18v-36q0 -19 -19 -19h-243q-19 0 -19 19v36q0 18 19 18z" />
    <glyph glyph-name="emacron" unicode="&#x113;" horiz-adv-x="495" 
d="M442 367v-122q0 -18 -17 -18h-272v-92q0 -33 21.5 -50t78.5 -17t78.5 17t21.5 50v11q0 19 19 19h51q19 0 19 -19v-17q0 -137 -191 -137t-191 137v238q0 137 193 137q189 0 189 -137zM153 361v-63h200v63q0 67 -100 67t-100 -67zM127 659h242q19 0 19 -18v-36
q0 -18 -19 -18h-242q-20 0 -20 18v36q0 18 20 18z" />
    <glyph glyph-name="Ebreve" unicode="&#x114;" horiz-adv-x="519" 
d="M453 0h-353q-18 0 -18 20v640q0 20 18 20h342q19 0 19 -19v-45q0 -19 -19 -19h-263v-202h245q20 0 20 -19v-43q0 -19 -20 -19h-245v-231h274q19 0 19 -18v-46q0 -19 -19 -19zM207 864v-18q0 -28 12.5 -42.5t45.5 -14.5t45.5 14.5t12.5 42.5v18q0 16 17 16h35q17 0 17 -16
v-15q0 -118 -129 -118q-126 0 -126 118v15q0 16 17 16h36q17 0 17 -16z" />
    <glyph glyph-name="ebreve" unicode="&#x115;" horiz-adv-x="495" 
d="M442 367v-122q0 -18 -17 -18h-272v-92q0 -33 21.5 -50t78.5 -17t78.5 17t21.5 50v11q0 19 19 19h51q19 0 19 -19v-17q0 -137 -191 -137t-191 137v238q0 137 193 137q189 0 189 -137zM153 361v-63h200v63q0 67 -100 67t-100 -67zM189 684v-17q0 -58 58 -58q33 0 45.5 15
t12.5 43v17q0 16 17 16h35q17 0 17 -16v-15q0 -117 -129 -117q-125 0 -125 117v15q0 16 17 16h35q17 0 17 -16z" />
    <glyph glyph-name="Edotaccent" unicode="&#x116;" horiz-adv-x="519" 
d="M317 839v-80q0 -19 -18 -19h-60q-18 0 -18 19v80q0 19 18 19h60q18 0 18 -19zM453 0h-353q-18 0 -18 20v640q0 20 18 20h342q19 0 19 -19v-45q0 -19 -19 -19h-263v-202h245q20 0 20 -19v-43q0 -19 -20 -19h-245v-231h274q19 0 19 -18v-46q0 -19 -19 -19z" />
    <glyph glyph-name="edotaccent" unicode="&#x117;" horiz-adv-x="495" 
d="M442 367v-122q0 -18 -17 -18h-272v-92q0 -33 21.5 -50t78.5 -17t78.5 17t21.5 50v11q0 19 19 19h51q19 0 19 -19v-17q0 -137 -191 -137t-191 137v238q0 137 193 137q189 0 189 -137zM153 361v-63h200v63q0 67 -100 67t-100 -67z" />
    <glyph glyph-name="Eogonek" unicode="&#x118;" horiz-adv-x="519" 
d="M453 0h-33q-27 0 -40 -16t-13 -39q0 -41 49 -41h28q19 0 19 -18v-28q0 -19 -25 -19h-46q-39 0 -69 21.5t-30 67.5q0 41 24 72h-217q-18 0 -18 20v640q0 20 18 20h342q19 0 19 -19v-45q0 -19 -19 -19h-263v-202h245q20 0 20 -19v-43q0 -19 -20 -19h-245v-231h274
q19 0 19 -18v-46q0 -19 -19 -19z" />
    <glyph glyph-name="eogonek" unicode="&#x119;" horiz-adv-x="495" 
d="M442 367v-122q0 -18 -17 -18h-272v-92q0 -33 21.5 -50t78.5 -17t78.5 17t21.5 50v11q0 19 19 19h51q19 0 19 -19v-17q0 -64 -37 -95q-4 -3 -13.5 -11t-13 -11t-11 -10t-10.5 -12.5t-7 -12.5t-5.5 -15.5t-1.5 -17.5q0 -40 48 -40h30q19 0 19 -18v-28q0 -19 -24 -19h-52
q-37 0 -64.5 20.5t-27.5 62.5q0 41 20 72q-26 -2 -41 -2q-191 0 -191 137v238q0 137 193 137q189 0 189 -137zM153 361v-63h200v63q0 67 -100 67t-100 -67z" />
    <glyph glyph-name="Ecaron" unicode="&#x11a;" horiz-adv-x="519" 
d="M453 0h-353q-18 0 -18 20v640q0 20 18 20h342q19 0 19 -19v-45q0 -19 -19 -19h-263v-202h245q20 0 20 -19v-43q0 -19 -20 -19h-245v-231h274q19 0 19 -18v-46q0 -19 -19 -19zM219 859l41 -66l41 66q13 19 26 19h45q10 0 13 -5.5t-3 -13.5l-75 -106q-13 -18 -30 -18h-35
q-16 0 -30 19l-75 105q-6 8 -3 13.5t13 5.5h45q14 0 27 -19z" />
    <glyph glyph-name="ecaron" unicode="&#x11b;" horiz-adv-x="495" 
d="M206 689l42 -66l41 66q13 19 26 19h45q10 0 13 -5.5t-3 -13.5l-75 -106q-13 -18 -30 -18h-35q-16 0 -30 19l-75 105q-6 8 -3 13.5t13 5.5h45q13 0 26 -19zM442 367v-122q0 -18 -17 -18h-272v-92q0 -33 21.5 -50t78.5 -17t78.5 17t21.5 50v11q0 19 19 19h51q19 0 19 -19
v-17q0 -137 -191 -137t-191 137v238q0 137 193 137q189 0 189 -137zM153 361v-63h200v63q0 67 -100 67t-100 -67z" />
    <glyph glyph-name="Gcircumflex" unicode="&#x11c;" horiz-adv-x="573" 
d="M286 820l-41 -67q-10 -18 -27 -18h-45q-10 0 -12.5 5.5t2.5 12.5l75 106q14 19 30 19h35q16 0 30 -19l75 -106q6 -7 3 -12.5t-13 -5.5h-45q-15 0 -26 18zM299 340h195q19 0 19 -18v-176q0 -154 -221 -154t-221 154v388q0 154 221 154t221 -154v-44q0 -19 -18 -19h-58
q-19 0 -19 19v28q0 87 -125 87q-124 0 -124 -87v-356q0 -87 124 -87q125 0 125 86v96h-119q-19 0 -19 19v46q0 18 19 18z" />
    <glyph glyph-name="gcircumflex" unicode="&#x11d;" horiz-adv-x="531" 
d="M266 650l-42 -67q-11 -18 -26 -18h-45q-10 0 -12.5 5.5t2.5 12.5l75 106q14 19 30 19h35q16 0 30 -19l75 -106q5 -7 2.5 -12.5t-12.5 -5.5h-45q-15 0 -26 18zM201 -8q-71 0 -106 36t-35 100v240q0 64 35 100t106 36q93 0 166 -60l2 32q1 20 19 20h53q19 0 19 -20v-543
q0 -137 -198 -137h-138q-20 0 -20 19v42q0 19 20 19h138q103 0 103 67v105q-76 -56 -164 -56zM155 353v-210q0 -65 74 -65q66 0 136 51v237q-67 52 -136 52q-74 0 -74 -65z" />
    <glyph glyph-name="Gbreve" unicode="&#x11e;" horiz-adv-x="573" 
d="M299 340h195q19 0 19 -18v-176q0 -154 -221 -154t-221 154v388q0 154 221 154t221 -154v-44q0 -19 -18 -19h-58q-19 0 -19 19v28q0 87 -125 87q-124 0 -124 -87v-356q0 -87 124 -87q125 0 125 86v96h-119q-19 0 -19 19v46q0 18 19 18zM228 864v-18q0 -28 12.5 -42.5
t45.5 -14.5t45.5 14.5t12.5 42.5v18q0 16 17 16h35q17 0 17 -16v-15q0 -118 -129 -118q-126 0 -126 118v15q0 16 17 16h36q17 0 17 -16z" />
    <glyph glyph-name="gbreve" unicode="&#x11f;" horiz-adv-x="531" 
d="M201 -8q-71 0 -106 36t-35 100v240q0 64 35 100t106 36q93 0 166 -60l2 32q1 20 19 20h53q19 0 19 -20v-543q0 -137 -198 -137h-138q-20 0 -20 19v42q0 19 20 19h138q103 0 103 67v105q-76 -56 -164 -56zM155 353v-210q0 -65 74 -65q66 0 136 51v237q-67 52 -136 52
q-74 0 -74 -65zM205 684v-17q0 -58 58 -58q33 0 45.5 15t12.5 43v17q0 16 17 16h35q17 0 17 -16v-15q0 -117 -129 -117q-125 0 -125 117v15q0 16 17 16h35q17 0 17 -16z" />
    <glyph glyph-name="Gdotaccent" unicode="&#x120;" horiz-adv-x="573" 
d="M334 836v-80q0 -19 -18 -19h-60q-18 0 -18 19v80q0 19 18 19h60q18 0 18 -19zM299 337h195q19 0 19 -18v-176q0 -154 -221 -154t-221 154v388q0 154 221 154t221 -154v-44q0 -19 -18 -19h-58q-19 0 -19 19v28q0 87 -125 87q-124 0 -124 -87v-356q0 -87 124 -87
q125 0 125 86v96h-119q-19 0 -19 19v46q0 18 19 18z" />
    <glyph glyph-name="gdotaccent" unicode="&#x121;" horiz-adv-x="531" 
d="M201 -8q-71 0 -106 36t-35 100v240q0 64 35 100t106 36q93 0 166 -60l2 32q1 20 19 20h53q19 0 19 -20v-543q0 -137 -198 -137h-138q-20 0 -20 19v42q0 19 20 19h138q103 0 103 67v105q-76 -56 -164 -56zM155 353v-210q0 -65 74 -65q66 0 136 51v237q-67 52 -136 52
q-74 0 -74 -65zM308 676v-79q0 -19 -18 -19h-60q-19 0 -19 19v79q0 19 19 19h60q18 0 18 -19z" />
    <glyph glyph-name="Gcommaaccent" unicode="&#x122;" horiz-adv-x="573" 
d="M253 -97v29q0 19 19 19h43q19 0 19 -19v-34q0 -57 -42 -125q-8 -13 -25 -10l-33 8q-19 5 -9 26q3 6 8.5 18t7 16.5t5 13.5t4.5 16t2 18t1 24zM299 340h195q19 0 19 -18v-176q0 -154 -221 -154t-221 154v388q0 154 221 154t221 -154v-44q0 -19 -18 -19h-58q-19 0 -19 19
v28q0 87 -125 87q-124 0 -124 -87v-356q0 -87 124 -87q125 0 125 86v96h-119q-19 0 -19 19v46q0 18 19 18z" />
    <glyph glyph-name="gcommaaccent" unicode="&#x123;" horiz-adv-x="531" 
d="M289 618v-29q0 -19 -19 -19h-43q-19 0 -19 19v34q0 57 42 125q8 13 25 10l33 -8q19 -5 9 -26q-3 -6 -8.5 -18t-7 -16.5t-5 -13.5t-4.5 -16t-2 -18t-1 -24zM201 -8q-71 0 -106 36t-35 100v240q0 64 35 100t106 36q93 0 166 -60l2 32q1 20 19 20h53q19 0 19 -20v-543
q0 -137 -198 -137h-138q-20 0 -20 19v42q0 19 20 19h138q103 0 103 67v105q-76 -56 -164 -56zM155 353v-210q0 -65 74 -65q66 0 136 51v237q-67 52 -136 52q-74 0 -74 -65z" />
    <glyph glyph-name="Hcircumflex" unicode="&#x124;" horiz-adv-x="618" 
d="M179 660v-263h260v263q0 20 18 20h62q18 0 18 -20v-640q0 -20 -18 -20h-62q-18 0 -18 20v294h-260v-294q0 -20 -18 -20h-61q-18 0 -18 20v640q0 20 18 20h61q18 0 18 -20zM309 820l-41 -67q-10 -18 -27 -18h-45q-10 0 -12.5 5.5t2.5 12.5l75 106q14 19 30 19h35
q16 0 30 -19l75 -106q5 -7 2.5 -12.5t-12.5 -5.5h-45q-15 0 -26 18z" />
    <glyph glyph-name="hcircumflex" unicode="&#x125;" horiz-adv-x="536" 
d="M166 679v-231q71 56 164 56q68 0 104.5 -35.5t36.5 -92.5v-356q0 -20 -18 -20h-58q-19 0 -19 20v333q0 66 -74 66q-70 0 -136 -51v-348q0 -20 -18 -20h-58q-19 0 -19 20v659q0 20 19 20h58q18 0 18 -20zM119 820l-41 -67q-10 -18 -27 -18h-45q-10 0 -12.5 5.5t2.5 12.5
l75 106q14 19 30 19h35q16 0 30 -19l75 -106q5 -7 2.5 -12.5t-12.5 -5.5h-45q-15 0 -26 18z" />
    <glyph glyph-name="Hbar" unicode="&#x126;" horiz-adv-x="618" 
d="M179 660v-106h260v106q0 20 18 20h62q18 0 18 -20v-106h34q19 0 19 -18v-31q0 -18 -19 -18h-34v-467q0 -20 -18 -20h-62q-18 0 -18 20v294h-260v-294q0 -20 -18 -20h-61q-18 0 -18 20v467h-35q-19 0 -19 18v31q0 18 19 18h35v106q0 20 18 20h61q18 0 18 -20zM179 397h260
v90h-260v-90z" />
    <glyph glyph-name="hbar" unicode="&#x127;" horiz-adv-x="536" 
d="M166 679v-60h120q20 0 20 -18v-31q0 -19 -20 -19h-120v-103q71 56 164 56q68 0 104.5 -35.5t36.5 -92.5v-356q0 -20 -18 -20h-58q-19 0 -19 20v333q0 66 -74 66q-70 0 -136 -51v-348q0 -20 -18 -20h-58q-19 0 -19 20v531h-41q-20 0 -20 19v31q0 18 20 18h41v60
q0 20 19 20h58q18 0 18 -20z" />
    <glyph glyph-name="Itilde" unicode="&#x128;" horiz-adv-x="261" 
d="M179 660v-640q0 -20 -18 -20h-61q-18 0 -18 20v640q0 20 18 20h61q18 0 18 -20zM63 805q-13 0 -16 -7.5t-3 -30.5v-7q0 -17 -20 -17h-32q-18 0 -16 22l2 32q2 40 24.5 60t54.5 20q33 0 59 -16l43 -26q33 -19 40 -19q12 0 15.5 8t3.5 30v7q0 17 21 17h31q18 0 16 -22
l-2 -32q-2 -40 -25 -60t-55 -20t-58 16l-43 26q-33 19 -40 19z" />
    <glyph glyph-name="itilde" unicode="&#x129;" 
d="M166 476v-457q0 -19 -18 -19h-59q-18 0 -18 19v457q0 20 18 20h59q18 0 18 -20zM50 628q-13 0 -16 -7.5t-3 -30.5v-7q0 -17 -20 -17h-32q-18 0 -16 22l2 32q2 40 24.5 60t54.5 20q33 0 59 -16l43 -26q33 -19 40 -19q12 0 15.5 8t3.5 30v7q0 17 21 17h31q18 0 16 -22
l-2 -32q-2 -40 -24.5 -60t-55.5 -20q-32 0 -58 16l-43 26q-33 19 -40 19z" />
    <glyph glyph-name="Imacron" unicode="&#x12a;" horiz-adv-x="261" 
d="M179 660v-640q0 -20 -18 -20h-61q-18 0 -18 20v640q0 20 18 20h61q18 0 18 -20zM10 836h243q19 0 19 -18v-36q0 -19 -19 -19h-243q-19 0 -19 19v36q0 18 19 18z" />
    <glyph glyph-name="imacron" unicode="&#x12b;" 
d="M166 476v-457q0 -19 -18 -19h-59q-18 0 -18 19v457q0 20 18 20h59q18 0 18 -20zM-2 659h242q19 0 19 -18v-36q0 -18 -19 -18h-242q-20 0 -20 18v36q0 18 20 18z" />
    <glyph glyph-name="Ibreve" unicode="&#x12c;" horiz-adv-x="261" 
d="M179 660v-640q0 -20 -18 -20h-61q-18 0 -18 20v640q0 20 18 20h61q18 0 18 -20zM73 864v-18q0 -28 12.5 -42.5t45.5 -14.5t45.5 14.5t12.5 42.5v18q0 16 17 16h35q17 0 17 -16v-15q0 -118 -129 -118q-126 0 -126 118v15q0 16 17 16h36q17 0 17 -16z" />
    <glyph glyph-name="ibreve" unicode="&#x12d;" 
d="M166 476v-457q0 -19 -18 -19h-59q-18 0 -18 19v457q0 20 18 20h59q18 0 18 -20zM60 684v-17q0 -58 58 -58q33 0 45.5 15t12.5 43v17q0 16 17 16h35q17 0 17 -16v-15q0 -117 -129 -117q-125 0 -125 117v15q0 16 17 16h35q17 0 17 -16z" />
    <glyph glyph-name="Iogonek" unicode="&#x12e;" horiz-adv-x="261" 
d="M179 660v-640q0 -20 -18 -20h-20q-24 0 -37.5 -16t-13.5 -39q0 -41 49 -41h28q19 0 19 -18v-28q0 -19 -25 -19h-46q-39 0 -69 21.5t-30 67.5q0 25 15.5 56.5t50.5 51.5v624q0 20 18 20h61q18 0 18 -20z" />
    <glyph glyph-name="iogonek" unicode="&#x12f;" 
d="M150 -161h-46q-39 0 -69 21.5t-30 67.5q0 26 15 57.5t51 50.5v440q0 20 19 20h58q18 0 18 -20v-456q0 -20 -18 -20h-18q-51 -3 -51 -55q0 -41 49 -41h28q19 0 19 -18v-28q0 -19 -25 -19zM166 679v-90q0 -19 -18 -19h-58q-19 0 -19 19v90q0 20 19 20h58q18 0 18 -20z" />
    <glyph glyph-name="Idotaccent" unicode="&#x130;" horiz-adv-x="261" 
d="M179 660v-640q0 -20 -18 -20h-61q-18 0 -18 20v640q0 20 18 20h61q18 0 18 -20zM179 839v-80q0 -19 -18 -19h-60q-18 0 -18 19v80q0 19 18 19h60q18 0 18 -19z" />
    <glyph glyph-name="dotlessi" unicode="&#x131;" 
d="M166 476v-457q0 -19 -18 -19h-59q-18 0 -18 19v457q0 20 18 20h59q18 0 18 -20z" />
    <glyph glyph-name="IJ" unicode="&#x132;" horiz-adv-x="765" 
d="M179 660v-640q0 -20 -18 -20h-61q-18 0 -18 20v640q0 20 18 20h61q18 0 18 -20zM381 197v-35q0 -43 24.5 -65t82.5 -22q57 0 80 22t23 65v498q0 20 18 20h61q19 0 19 -20v-514q0 -154 -201 -154q-203 0 -203 154v51q0 20 19 20h59q18 0 18 -20z" />
    <glyph glyph-name="ij" unicode="&#x133;" horiz-adv-x="473" 
d="M166 476v-456q0 -20 -18 -20h-58q-19 0 -19 20v456q0 20 19 20h58q18 0 18 -20zM166 679v-90q0 -19 -18 -19h-58q-19 0 -19 19v90q0 20 19 20h58q18 0 18 -20zM402 679v-90q0 -19 -18 -19h-59q-18 0 -18 19v90q0 20 18 20h59q18 0 18 -20zM402 476v-543q0 -137 -198 -137
h-8q-19 0 -19 19v42q0 19 19 19h8q103 0 103 67v533q0 20 18 20h58q19 0 19 -20z" />
    <glyph glyph-name="Jcircumflex" unicode="&#x134;" horiz-adv-x="504" 
d="M120 197v-35q0 -43 24.5 -65t82.5 -22q57 0 80 22t23 65v498q0 20 18 20h61q19 0 19 -20v-514q0 -154 -201 -154q-203 0 -203 154v51q0 20 19 20h59q18 0 18 -20zM375 820l-41 -67q-10 -18 -27 -18h-45q-10 0 -12.5 5.5t2.5 12.5l75 106q14 19 30 19h35q16 0 30 -19
l75 -106q5 -7 2.5 -12.5t-12.5 -5.5h-45q-15 0 -26 18z" />
    <glyph glyph-name="jcircumflex" unicode="&#x135;" 
d="M166 476v-544q0 -136 -198 -136h-8q-19 0 -19 18v41q0 19 19 19h8q103 0 103 68v534q0 20 18 20h58q19 0 19 -20zM119 650l-42 -67q-11 -18 -26 -18h-45q-10 0 -12.5 5.5t2.5 12.5l75 106q14 19 30 19h35q16 0 30 -19l75 -106q5 -7 2.5 -12.5t-12.5 -5.5h-45
q-15 0 -26 18z" />
    <glyph glyph-name="Kcommaaccent" unicode="&#x136;" horiz-adv-x="564" 
d="M242 -97v29q0 19 19 19h43q19 0 19 -19v-34q0 -57 -42 -125q-8 -13 -25 -10l-33 8q-19 5 -9 26q3 6 8.5 18t7 16.5t5 13.5t4.5 16t2 18t1 24zM287 345l259 -326q6 -7 3 -13t-12 -6h-79q-16 0 -29 19l-224 283h-25v-283q0 -19 -19 -19h-61q-18 0 -18 19v642q0 19 18 19h61
q19 0 19 -19v-286h24l209 286q15 19 31 19h66q10 0 12 -6t-3 -13z" />
    <glyph glyph-name="kcommaaccent" unicode="&#x137;" horiz-adv-x="474" 
d="M207 -97v29q0 19 19 19h43q19 0 19 -19v-34q0 -57 -42 -125q-8 -13 -25 -10l-33 8q-19 5 -9 26q3 6 8.5 18t7 16.5t5 13.5t4.5 16t2 18t1 24zM271 281l196 -262q6 -7 3 -13t-12 -6h-64q-14 0 -29 19l-170 223h-29v-223q0 -19 -18 -19h-59q-18 0 -18 19v661q0 19 18 19h59
q18 0 18 -19v-366h28l151 163q17 19 31 19h63q10 0 13 -6.5t-4 -13.5z" />
    <glyph glyph-name="kgreenlandic" unicode="&#x138;" horiz-adv-x="474" 
d="M271 279l196 -260q6 -7 3 -13t-12 -6h-64q-14 0 -29 19l-170 220h-29v-220q0 -19 -18 -19h-59q-18 0 -18 19v457q0 20 18 20h59q18 0 18 -20v-164h28l151 165q17 19 31 19h63q10 0 13 -6t-4 -14z" />
    <glyph glyph-name="Lacute" unicode="&#x139;" horiz-adv-x="485" 
d="M251 859l-77 -112q-7 -12 -24 -12h-46q-20 0 -10 18l59 107q10 18 26 18h62q22 0 10 -19zM180 660v-577h256q19 0 19 -18v-46q0 -19 -19 -19h-338q-16 0 -16 20v640q0 20 19 20h61q18 0 18 -20z" />
    <glyph glyph-name="lacute" unicode="&#x13a;" 
d="M240 859l-77 -112q-7 -12 -24 -12h-46q-20 0 -10 18l59 107q10 18 26 18h62q22 0 10 -19zM166 679v-659q0 -20 -18 -20h-58q-19 0 -19 20v659q0 20 19 20h58q18 0 18 -20z" />
    <glyph glyph-name="Lcommaaccent" unicode="&#x13b;" horiz-adv-x="485" 
d="M216 -97v29q0 19 19 19h43q19 0 19 -19v-34q0 -57 -42 -125q-8 -13 -25 -10l-33 8q-19 5 -9 26q3 6 8.5 18t7 16.5t5 13.5t4.5 16t2 18t1 24zM180 660v-577h256q19 0 19 -18v-46q0 -19 -19 -19h-338q-16 0 -16 20v640q0 20 19 20h61q18 0 18 -20z" />
    <glyph glyph-name="lcommaaccent" unicode="&#x13c;" 
d="M78 -98v29q0 19 19 19h43q19 0 19 -19v-34q0 -57 -42 -125q-8 -13 -25 -10l-33 8q-19 5 -9 26q3 6 8.5 18t7 16.5t5 13.5t4.5 16t2 18t1 24zM166 679v-659q0 -20 -18 -20h-58q-19 0 -19 20v659q0 20 19 20h58q18 0 18 -20z" />
    <glyph glyph-name="Lcaron" unicode="&#x13d;" horiz-adv-x="485" 
d="M324 672v29q0 19 19 19h43q19 0 19 -19v-34q0 -57 -42 -125q-8 -13 -25 -10l-33 8q-19 5 -9 26q3 6 8.5 18t7 16.5t5 13.5t4.5 16t2 18t1 24zM180 660v-577h256q19 0 19 -18v-46q0 -19 -19 -19h-338q-16 0 -16 20v640q0 20 19 20h61q18 0 18 -20z" />
    <glyph glyph-name="lcaron" unicode="&#x13e;" horiz-adv-x="311" 
d="M241 681v29q0 19 19 19h43q19 0 19 -19v-34q0 -57 -42 -125q-8 -13 -25 -10l-33 8q-19 5 -9 26q3 6 8.5 18t7 16.5t5 13.5t4.5 16t2 18t1 24zM166 679v-659q0 -20 -18 -20h-58q-19 0 -19 20v659q0 20 19 20h58q18 0 18 -20z" />
    <glyph glyph-name="Ldot" unicode="&#x13f;" horiz-adv-x="485" 
d="M180 660v-577h256q19 0 19 -18v-46q0 -19 -19 -19h-338q-16 0 -16 20v640q0 20 19 20h61q18 0 18 -20zM419 394v-80q0 -19 -18 -19h-60q-19 0 -19 19v80q0 19 19 19h60q18 0 18 -19z" />
    <glyph glyph-name="ldot" unicode="&#x140;" horiz-adv-x="339" 
d="M166 679v-659q0 -20 -18 -20h-58q-19 0 -19 20v659q0 20 19 20h58q18 0 18 -20zM328 394v-80q0 -19 -18 -19h-60q-19 0 -19 19v80q0 19 19 19h60q18 0 18 -19z" />
    <glyph glyph-name="Lslash" unicode="&#x141;" horiz-adv-x="485" 
d="M180 660v-268l53 22q18 7 25 -10l9 -21q6 -15 -11 -23l-76 -31v-246h256q19 0 19 -18v-46q0 -19 -19 -19h-338q-16 0 -16 20v269l-41 -17q-16 -6 -24 11l-9 20q-7 17 11 24l63 25v308q0 20 19 20h61q18 0 18 -20z" />
    <glyph glyph-name="lslash" unicode="&#x142;" horiz-adv-x="260" 
d="M177 679v-285l49 20q17 7 24 -10l9 -21q6 -16 -11 -23l-71 -30v-310q0 -20 -18 -20h-58q-19 0 -19 20v271l-48 -19q-18 -7 -25 11l-8 20q-7 18 10 24l71 28v324q0 20 19 20h58q18 0 18 -20z" />
    <glyph glyph-name="Nacute" unicode="&#x143;" horiz-adv-x="618" 
d="M536 661v-642q0 -19 -18 -19h-55q-12 0 -18 9l-235 412q-8 13 -15 26.5t-10.5 22t-6.5 16.5l-4 7v-474q0 -19 -18 -19h-56q-18 0 -18 19v642q0 19 18 19h56q11 0 16 -8l241 -421q6 -10 13 -25t12 -27l6 -12v474q0 19 19 19h55q18 0 18 -19zM431 859l-77 -112
q-7 -12 -24 -12h-46q-20 0 -10 18l59 107q10 18 26 18h62q22 0 10 -19z" />
    <glyph glyph-name="nacute" unicode="&#x144;" horiz-adv-x="536" 
d="M390 689l-76 -112q-7 -12 -24 -12h-46q-20 0 -10 18l59 107q10 18 26 18h62q23 0 9 -19zM90 496h53q18 0 19 -19l2 -32q69 59 166 59q68 0 104.5 -35.5t36.5 -92.5v-356q0 -20 -18 -20h-58q-19 0 -19 20v333q0 66 -74 66q-70 0 -136 -51v-348q0 -20 -18 -20h-58
q-19 0 -19 20v457q0 19 19 19z" />
    <glyph glyph-name="Ncommaaccent" unicode="&#x145;" horiz-adv-x="618" 
d="M274 -98v29q0 19 19 19h43q19 0 19 -19v-34q0 -57 -42 -125q-8 -13 -25 -10l-33 8q-19 5 -9 26q3 6 8.5 18t7 16.5t5 13.5t4.5 16t2 18t1 24zM536 661v-642q0 -19 -18 -19h-55q-12 0 -18 9l-235 412q-8 13 -15 26.5t-10.5 22t-6.5 16.5l-4 7v-474q0 -19 -18 -19h-56
q-18 0 -18 19v642q0 19 18 19h56q11 0 16 -8l241 -421l31 -64v474q0 19 19 19h55q18 0 18 -19z" />
    <glyph glyph-name="ncommaaccent" unicode="&#x146;" horiz-adv-x="536" 
d="M230 -97v29q0 19 19 19h43q19 0 19 -19v-34q0 -57 -42 -125q-8 -13 -25 -10l-33 8q-19 5 -9 26q3 6 8.5 18t7 16.5t5 13.5t4.5 16t2 18t1 24zM90 496h53q18 0 19 -19l2 -32q69 59 166 59q68 0 104.5 -35.5t36.5 -92.5v-356q0 -20 -18 -20h-58q-19 0 -19 20v333
q0 66 -74 66q-70 0 -136 -51v-348q0 -20 -18 -20h-58q-19 0 -19 20v457q0 19 19 19z" />
    <glyph glyph-name="Ncaron" unicode="&#x147;" horiz-adv-x="618" 
d="M536 661v-642q0 -19 -18 -19h-55q-12 0 -18 9l-235 412q-8 13 -15 26.5t-10.5 22t-6.5 16.5l-4 7v-474q0 -19 -18 -19h-56q-18 0 -18 19v642q0 19 18 19h56q11 0 16 -8l241 -421q6 -10 13 -25t12 -27l6 -12v474q0 19 19 19h55q18 0 18 -19zM268 859l41 -66l41 66
q13 19 26 19h45q10 0 13 -5.5t-3 -13.5l-75 -106q-13 -18 -30 -18h-35q-16 0 -30 19l-75 105q-6 8 -3 13.5t13 5.5h45q14 0 27 -19z" />
    <glyph glyph-name="ncaron" unicode="&#x148;" horiz-adv-x="536" 
d="M226 689l42 -66l41 66q13 19 26 19h45q10 0 13 -5.5t-3 -13.5l-75 -106q-13 -18 -30 -18h-35q-16 0 -30 19l-75 105q-6 8 -3 13.5t13 5.5h45q13 0 26 -19zM90 496h53q18 0 19 -19l2 -32q69 59 166 59q68 0 104.5 -35.5t36.5 -92.5v-356q0 -20 -18 -20h-58q-19 0 -19 20
v333q0 66 -74 66q-70 0 -136 -51v-348q0 -20 -18 -20h-58q-19 0 -19 20v457q0 19 19 19z" />
    <glyph glyph-name="napostrophe" unicode="&#x149;" horiz-adv-x="536" 
d="M66 681v29q0 19 19 19h43q19 0 19 -19v-34q0 -57 -42 -125q-8 -13 -25 -10l-33 8q-19 5 -9 26q3 6 8.5 18t7 16.5t5 13.5t4.5 16t2 18t1 24zM90 496h53q18 0 19 -19l2 -32q69 59 166 59q68 0 104.5 -35.5t36.5 -92.5v-356q0 -20 -18 -20h-58q-19 0 -19 20v333
q0 66 -74 66q-70 0 -136 -51v-348q0 -20 -18 -20h-58q-19 0 -19 20v457q0 19 19 19z" />
    <glyph glyph-name="Eng" unicode="&#x14a;" horiz-adv-x="618" 
d="M536 661v-729q0 -136 -195 -136h-7q-20 0 -20 18v41q0 19 20 19h7q103 0 103 68v69l-234 410q-28 49 -36 72v-474q0 -19 -18 -19h-56q-18 0 -18 19v642q0 19 18 19h56q11 0 16 -8l241 -421l11.5 -23t13.5 -28l6 -13v474q0 19 19 19h55q18 0 18 -19z" />
    <glyph glyph-name="eng" unicode="&#x14b;" horiz-adv-x="536" 
d="M89 496h54q19 0 19 -19l1 -32q74 59 167 59q67 0 104 -35t37 -92v-445q0 -136 -198 -136h-7q-20 0 -20 18v41q0 19 20 19h7q103 0 103 68v412q0 67 -74 67q-75 0 -136 -52v-350q0 -19 -18 -19h-59q-18 0 -18 19v458q0 19 18 19z" />
    <glyph glyph-name="Omacron" unicode="&#x14c;" horiz-adv-x="597" 
d="M71 146v388q0 68 53.5 111t173.5 43t174 -43t54 -111v-388q0 -68 -54 -111t-174 -43t-173.5 43t-53.5 111zM428 162v356q0 87 -130 87q-129 0 -129 -87v-356q0 -87 129 -87q130 0 130 87zM177 836h243q19 0 19 -18v-36q0 -19 -19 -19h-243q-19 0 -19 19v36q0 18 19 18z
" />
    <glyph glyph-name="omacron" unicode="&#x14d;" horiz-adv-x="520" 
d="M139 659h242q19 0 19 -18v-36q0 -18 -19 -18h-242q-20 0 -20 18v36q0 18 20 18zM60 129v238q0 64 49 100.5t151 36.5t151 -36.5t49 -100.5v-238q0 -64 -49 -100.5t-151 -36.5t-151 36.5t-49 100.5zM365 137v222q0 67 -105 67t-105 -67v-222q0 -67 105 -67t105 67z" />
    <glyph glyph-name="Obreve" unicode="&#x14e;" horiz-adv-x="597" 
d="M71 146v388q0 68 53.5 111t173.5 43t174 -43t54 -111v-388q0 -68 -54 -111t-174 -43t-173.5 43t-53.5 111zM428 162v356q0 87 -130 87q-129 0 -129 -87v-356q0 -87 129 -87q130 0 130 87zM240 864v-18q0 -28 12.5 -42.5t45.5 -14.5t45.5 14.5t12.5 42.5v18q0 16 17 16h35
q17 0 17 -16v-15q0 -118 -129 -118q-126 0 -126 118v15q0 16 17 16h36q17 0 17 -16z" />
    <glyph glyph-name="obreve" unicode="&#x14f;" horiz-adv-x="520" 
d="M60 129v238q0 64 49 100.5t151 36.5t151 -36.5t49 -100.5v-238q0 -64 -49 -100.5t-151 -36.5t-151 36.5t-49 100.5zM365 137v222q0 67 -105 67t-105 -67v-222q0 -67 105 -67t105 67zM199 684v-17q0 -58 58 -58q33 0 45.5 15t12.5 43v17q0 16 17 16h35q17 0 17 -16v-15
q0 -117 -129 -117q-125 0 -125 117v15q0 16 17 16h35q17 0 17 -16z" />
    <glyph glyph-name="Ohungarumlaut" unicode="&#x150;" horiz-adv-x="597" 
d="M467 859l-74 -107q-11 -17 -27 -17h-44q-20 0 -9 18l64 106q11 19 29 19h52q21 0 9 -19zM333 859l-59 -106q-10 -18 -25 -18h-44q-21 0 -12 18l49 106q8 19 27 19h51q10 0 14 -6t-1 -13zM71 146v388q0 68 53.5 111t173.5 43t174 -43t54 -111v-388q0 -68 -54 -111
t-174 -43t-173.5 43t-53.5 111zM428 162v356q0 87 -130 87q-129 0 -129 -87v-356q0 -87 129 -87q130 0 130 87z" />
    <glyph glyph-name="ohungarumlaut" unicode="&#x151;" horiz-adv-x="520" 
d="M436 689l-74 -107q-11 -17 -28 -17h-43q-21 0 -10 18l64 106q11 19 30 19h51q10 0 13 -6t-3 -13zM302 689l-60 -106q-10 -18 -25 -18h-43q-10 0 -13.5 5.5t0.5 12.5l50 106q9 19 26 19h52q10 0 14 -6t-1 -13zM60 129v238q0 64 49 100.5t151 36.5t151 -36.5t49 -100.5
v-238q0 -64 -49 -100.5t-151 -36.5t-151 36.5t-49 100.5zM365 137v222q0 67 -105 67t-105 -67v-222q0 -67 105 -67t105 67z" />
    <glyph glyph-name="OE" unicode="&#x152;" horiz-adv-x="865" 
d="M71 145v390q0 68 53.5 110.5t173.5 42.5q75 0 130 -31v4q0 19 19 19h341q19 0 19 -18v-44q0 -19 -19 -19h-262v-205h245q19 0 19 -18v-42q0 -18 -19 -18h-245v-235h274q19 0 19 -18v-44q0 -19 -19 -19h-354q-18 0 -18 19v4q-52 -31 -130 -31q-120 0 -173.5 42.5
t-53.5 110.5zM428 157v362q0 88 -130 88q-129 0 -129 -88v-358q0 -88 129 -88q127 0 130 84z" />
    <glyph glyph-name="oe" unicode="&#x153;" horiz-adv-x="801" 
d="M60 128v239q0 64 49 100.5t151 36.5q103 0 146 -40q48 40 152 40q190 0 190 -137v-117q0 -18 -18 -18h-272v-100q0 -33 23 -50.5t77 -17.5q101 0 101 68v13q0 19 18 19h49q19 0 19 -19v-17q0 -136 -187 -136q-106 0 -152 40q-42 -40 -146 -40q-102 0 -151 36t-49 100z
M365 136v224q0 68 -105 68t-105 -68v-224q0 -68 105 -68t105 68zM458 363v-66h201v66q0 69 -101 69q-100 0 -100 -69z" />
    <glyph glyph-name="Racute" unicode="&#x154;" horiz-adv-x="594" 
d="M179 269v-249q0 -20 -18 -20h-61q-18 0 -18 20v640q0 20 18 20h203q120 0 173.5 -43t53.5 -111v-104q0 -107 -117 -140l120 -262q4 -9 -1.5 -14.5t-16.5 -5.5h-60q-12 0 -20 16q-1 3 -2 4l-113 249h-141zM303 597h-124v-245h124q130 0 130 87v71q0 87 -130 87zM386 859
l-77 -112q-7 -12 -24 -12h-46q-20 0 -10 18l59 107q10 18 26 18h62q22 0 10 -19z" />
    <glyph glyph-name="racute" unicode="&#x155;" horiz-adv-x="356" 
d="M266 689l-76 -112q-7 -12 -24 -12h-46q-20 0 -10 18l59 107q10 18 26 18h62q23 0 9 -19zM321 504q20 0 20 -19v-46q0 -18 -20 -20q-88 -6 -155 -64v-335q0 -20 -18 -20h-58q-19 0 -19 20v457q0 19 19 19h53q18 0 19 -19l3 -43q70 70 156 70z" />
    <glyph glyph-name="Rcommaaccent" unicode="&#x156;" horiz-adv-x="594" 
d="M179 269v-249q0 -20 -18 -20h-61q-18 0 -18 20v640q0 20 18 20h203q120 0 173.5 -43t53.5 -111v-104q0 -107 -117 -140l120 -262q4 -9 -1.5 -14.5t-16.5 -5.5h-60q-12 0 -20 16q-1 3 -2 4l-113 249h-141zM303 597h-124v-245h124q130 0 130 87v71q0 87 -130 87zM256 -97
v29q0 19 19 19h43q19 0 19 -19v-34q0 -57 -42 -125q-8 -13 -25 -10l-33 8q-19 5 -9 26q3 6 8.5 18t7 16.5t5 13.5t4.5 16t2 18t1 24z" />
    <glyph glyph-name="rcommaaccent" unicode="&#x157;" horiz-adv-x="356" 
d="M79 -97v29q0 19 19 19h43q19 0 19 -19v-34q0 -57 -42 -125q-8 -13 -25 -10l-33 8q-19 5 -9 26q3 6 8.5 18t7 16.5t5 13.5t4.5 16t2 18t1 24zM321 504q20 0 20 -19v-46q0 -18 -20 -20q-88 -6 -155 -64v-335q0 -20 -18 -20h-58q-19 0 -19 20v457q0 19 19 19h53q18 0 19 -19
l3 -43q70 70 156 70z" />
    <glyph glyph-name="Rcaron" unicode="&#x158;" horiz-adv-x="594" 
d="M179 269v-249q0 -20 -18 -20h-61q-18 0 -18 20v640q0 20 18 20h203q120 0 173.5 -43t53.5 -111v-104q0 -107 -117 -140l120 -262q4 -9 -1.5 -14.5t-16.5 -5.5h-60q-12 0 -20 16q-1 3 -2 4l-113 249h-141zM303 597h-124v-245h124q130 0 130 87v71q0 87 -130 87zM246 859
l41 -66l41 66q13 19 26 19h45q10 0 13 -5.5t-3 -13.5l-75 -106q-13 -18 -30 -18h-35q-16 0 -30 19l-75 105q-6 8 -3 13.5t13 5.5h45q14 0 27 -19z" />
    <glyph glyph-name="rcaron" unicode="&#x159;" horiz-adv-x="356" 
d="M136 689l42 -66l41 66q13 19 26 19h45q10 0 13 -5.5t-3 -13.5l-75 -106q-13 -18 -30 -18h-35q-16 0 -30 19l-75 105q-6 8 -3 13.5t13 5.5h45q13 0 26 -19zM321 504q20 0 20 -19v-46q0 -18 -20 -20q-88 -6 -155 -64v-335q0 -20 -18 -20h-58q-19 0 -19 20v457q0 19 19 19
h53q18 0 19 -19l3 -43q70 70 156 70z" />
    <glyph glyph-name="Sacute" unicode="&#x15a;" horiz-adv-x="568" 
d="M410 490v31q0 85 -121 85t-121 -85v-20q0 -48 51 -67l182 -69q110 -42 110 -136v-83q0 -68 -53.5 -111t-170.5 -43t-171 43t-54 111v58q0 20 19 20h59q18 0 18 -20v-45q0 -85 128 -85q129 0 129 85v47q0 23 -14.5 40.5t-28.5 24.5t-41 17l-169 65q-36 14 -62.5 47
t-26.5 77v57q0 68 50.5 111t164.5 43t165.5 -43t51.5 -111v-44q0 -19 -18 -19h-59q-18 0 -18 19zM405 859l-77 -112q-7 -12 -24 -12h-46q-20 0 -10 18l59 107q10 18 26 18h62q22 0 10 -19z" />
    <glyph glyph-name="sacute" unicode="&#x15b;" horiz-adv-x="468" 
d="M358 689l-76 -112q-7 -12 -24 -12h-46q-20 0 -10 18l59 107q10 18 26 18h62q23 0 9 -19zM333 357v24q0 53 -95 53q-93 0 -93 -53v-17q0 -32 42 -46l150 -52q90 -31 90 -98v-56q0 -51 -47.5 -85.5t-142.5 -34.5q-96 0 -142.5 34.5t-46.5 85.5v25q0 18 17 18h53
q17 0 17 -18v-21q0 -53 102 -53t102 53v27q0 30 -53 48l-150 52q-31 11 -54.5 38.5t-23.5 62.5v37q0 52 43.5 87.5t137.5 35.5q93 0 137 -35.5t44 -87.5v-24q0 -18 -18 -18h-52q-17 0 -17 18z" />
    <glyph glyph-name="Scircumflex" unicode="&#x15c;" horiz-adv-x="568" 
d="M410 490v31q0 85 -121 85t-121 -85v-20q0 -48 51 -67l182 -69q110 -42 110 -136v-83q0 -68 -53.5 -111t-170.5 -43t-171 43t-54 111v58q0 20 19 20h59q18 0 18 -20v-45q0 -85 128 -85q129 0 129 85v47q0 23 -14.5 40.5t-28.5 24.5t-41 17l-169 65q-36 14 -62.5 47
t-26.5 77v57q0 68 50.5 111t164.5 43t165.5 -43t51.5 -111v-44q0 -19 -18 -19h-59q-18 0 -18 19zM284 820l-41 -67q-10 -18 -27 -18h-45q-10 0 -12.5 5.5t2.5 12.5l75 106q14 19 30 19h35q16 0 30 -19l75 -106q6 -7 3 -12.5t-13 -5.5h-45q-15 0 -26 18z" />
    <glyph glyph-name="scircumflex" unicode="&#x15d;" horiz-adv-x="468" 
d="M234 650l-42 -67q-11 -18 -26 -18h-45q-10 0 -12.5 5.5t2.5 12.5l75 106q14 19 30 19h35q16 0 30 -19l75 -106q5 -7 2.5 -12.5t-12.5 -5.5h-45q-15 0 -26 18zM333 357v24q0 53 -95 53q-93 0 -93 -53v-17q0 -32 42 -46l150 -52q90 -31 90 -98v-56q0 -51 -47.5 -85.5
t-142.5 -34.5q-96 0 -142.5 34.5t-46.5 85.5v25q0 18 17 18h53q17 0 17 -18v-21q0 -53 102 -53t102 53v27q0 30 -53 48l-150 52q-31 11 -54.5 38.5t-23.5 62.5v37q0 52 43.5 87.5t137.5 35.5q93 0 137 -35.5t44 -87.5v-24q0 -18 -18 -18h-52q-17 0 -17 18z" />
    <glyph glyph-name="Scedilla" unicode="&#x15e;" horiz-adv-x="568" 
d="M293 -52h34q37 0 61 -20t24 -59q0 -40 -24 -60t-61 -20h-113q-19 0 -19 19v20q0 18 19 18h99q32 0 32 23q0 22 -32 22h-66q-17 0 -23 6t-3 18l20 79q-93 8 -136 49.5t-43 102.5v58q0 20 19 20h59q18 0 18 -20v-45q0 -85 128 -85q129 0 129 85v47q0 23 -14.5 40.5
t-28.5 24.5t-41 17l-169 65q-36 14 -62.5 47t-26.5 77v57q0 68 50.5 111t164.5 43t165.5 -43t51.5 -111v-44q0 -19 -18 -19h-59q-18 0 -18 19v31q0 85 -121 85t-121 -85v-20q0 -48 51 -67l182 -69q110 -42 110 -136v-83q0 -65 -49 -107t-157 -46z" />
    <glyph glyph-name="scedilla" unicode="&#x15f;" horiz-adv-x="468" 
d="M231 -52h34q37 0 61 -20t24 -59q0 -40 -24 -60t-61 -20h-113q-19 0 -19 19v20q0 18 19 18h99q32 0 32 23q0 22 -32 22h-66q-17 0 -23 6t-3 18l21 81q-67 10 -99.5 41.5t-32.5 74.5v25q0 18 17 18h53q17 0 17 -18v-21q0 -53 102 -53t102 53v27q0 30 -53 48l-150 52
q-31 11 -54.5 38.5t-23.5 62.5v37q0 52 43.5 87.5t137.5 35.5q93 0 137 -35.5t44 -87.5v-24q0 -18 -18 -18h-52q-17 0 -17 18v24q0 53 -95 53q-93 0 -93 -53v-17q0 -32 42 -46l150 -52q90 -31 90 -98v-56q0 -50 -46 -84.5t-138 -35.5z" />
    <glyph glyph-name="Scaron" unicode="&#x160;" horiz-adv-x="568" 
d="M410 490v31q0 85 -121 85t-121 -85v-20q0 -48 51 -67l182 -69q110 -42 110 -136v-83q0 -68 -53.5 -111t-170.5 -43t-171 43t-54 111v58q0 20 19 20h59q18 0 18 -20v-45q0 -85 128 -85q129 0 129 85v47q0 23 -14.5 40.5t-28.5 24.5t-41 17l-169 65q-36 14 -62.5 47
t-26.5 77v57q0 68 50.5 111t164.5 43t165.5 -43t51.5 -111v-44q0 -19 -18 -19h-59q-18 0 -18 19zM245 859l41 -66l41 66q13 19 26 19h45q10 0 13 -5.5t-3 -13.5l-75 -106q-13 -18 -30 -18h-35q-16 0 -30 19l-75 105q-6 8 -3 13.5t13 5.5h45q14 0 27 -19z" />
    <glyph glyph-name="scaron" unicode="&#x161;" horiz-adv-x="468" 
d="M197 689l42 -66l41 66q13 19 26 19h45q10 0 13 -5.5t-3 -13.5l-75 -106q-13 -18 -30 -18h-35q-16 0 -30 19l-75 105q-6 8 -3 13.5t13 5.5h45q13 0 26 -19zM333 357v24q0 53 -95 53q-93 0 -93 -53v-17q0 -32 42 -46l150 -52q90 -31 90 -98v-56q0 -51 -47.5 -85.5
t-142.5 -34.5q-96 0 -142.5 34.5t-46.5 85.5v25q0 18 17 18h53q17 0 17 -18v-21q0 -53 102 -53t102 53v27q0 30 -53 48l-150 52q-31 11 -54.5 38.5t-23.5 62.5v37q0 52 43.5 87.5t137.5 35.5q93 0 137 -35.5t44 -87.5v-24q0 -18 -18 -18h-52q-17 0 -17 18z" />
    <glyph glyph-name="Tcommaaccent" unicode="&#x162;" horiz-adv-x="487" 
d="M203 -97v29q0 19 19 19h43q19 0 19 -19v-34q0 -57 -42 -125q-8 -13 -25 -10l-33 8q-19 5 -9 26q3 6 8.5 18t7 16.5t5 13.5t4.5 16t2 18t1 24zM34 680h418q19 0 19 -19v-45q0 -19 -19 -19h-160v-577q0 -20 -18 -20h-62q-18 0 -18 20v577h-160q-19 0 -19 19v45q0 19 19 19z
" />
    <glyph glyph-name="tcommaaccent" unicode="&#x163;" horiz-adv-x="354" 
d="M110 -98v29q0 19 19 19h43q19 0 19 -19v-34q0 -57 -42 -125q-8 -13 -25 -10l-33 8q-19 5 -9 26q3 6 8.5 18t7 16.5t5 13.5t4.5 16t2 18t1 24zM191 494h103q19 0 19 -18v-40q0 -20 -19 -20h-103v-269q0 -66 101 -66h19q19 0 19 -20v-42q0 -19 -19 -19h-33
q-101 0 -142 33.5t-41 103.5v279h-55q-19 0 -19 20v35q0 18 19 19l49 4h6v101q0 20 19 20h59q18 0 18 -20v-101z" />
    <glyph glyph-name="Tcaron" unicode="&#x164;" horiz-adv-x="487" 
d="M34 680h418q19 0 19 -19v-45q0 -19 -19 -19h-160v-577q0 -20 -18 -20h-62q-18 0 -18 20v577h-160q-19 0 -19 19v45q0 19 19 19zM202 859l41 -66l41 66q13 19 26 19h45q10 0 13 -5.5t-3 -13.5l-75 -106q-13 -18 -30 -18h-35q-16 0 -30 19l-75 105q-6 8 -3 13.5t13 5.5h45
q14 0 27 -19z" />
    <glyph glyph-name="tcaron" unicode="&#x165;" horiz-adv-x="381" 
d="M266 676v29q0 19 19 19h43q19 0 19 -19v-34q0 -57 -42 -125q-8 -13 -25 -10l-33 8q-19 5 -9 26q3 6 8.5 18t7 16.5t5 13.5t4.5 16t2 18t1 24zM191 494h103q19 0 19 -18v-40q0 -20 -19 -20h-103v-269q0 -66 101 -66h19q19 0 19 -20v-42q0 -19 -19 -19h-33
q-101 0 -142 33.5t-41 103.5v279h-55q-19 0 -19 20v35q0 18 19 19l49 4h6v101q0 20 19 20h59q18 0 18 -20v-101z" />
    <glyph glyph-name="Tbar" unicode="&#x166;" horiz-adv-x="487" 
d="M34 680h418q19 0 19 -19v-45q0 -19 -19 -19h-160v-160h129q19 0 19 -18v-30q0 -19 -19 -19h-129v-350q0 -20 -18 -20h-62q-18 0 -18 20v350h-126q-19 0 -19 19v30q0 18 19 18h126v160h-160q-19 0 -19 19v45q0 19 19 19z" />
    <glyph glyph-name="tbar" unicode="&#x167;" horiz-adv-x="354" 
d="M191 494h103q19 0 19 -18v-40q0 -20 -19 -20h-103v-87h103q20 0 20 -18v-30q0 -19 -20 -19h-103v-115q0 -66 101 -66h19q19 0 19 -20v-42q0 -19 -19 -19h-33q-101 0 -142 33.5t-41 103.5v125h-55q-19 0 -19 19v30q0 18 19 18h55v87h-55q-19 0 -19 20v35q0 18 19 19l49 4
h6v101q0 20 19 20h59q18 0 18 -20v-101z" />
    <glyph glyph-name="Utilde" unicode="&#x168;" horiz-adv-x="608" 
d="M174 660v-498q0 -87 129 -87q131 0 131 87v498q0 20 18 20h61q18 0 18 -20v-514q0 -68 -54 -111t-174 -43t-173.5 43t-53.5 111v514q0 20 19 20h61q18 0 18 -20zM236 805q-13 0 -16 -7.5t-3 -30.5v-7q0 -17 -20 -17h-32q-18 0 -16 22l2 32q2 40 24.5 60t54.5 20
q33 0 59 -16l43 -26q33 -19 40 -19q12 0 15.5 8t3.5 30v7q0 17 21 17h31q18 0 16 -22l-2 -32q-2 -40 -24.5 -60t-55.5 -20q-32 0 -58 16l-43 26q-33 19 -40 19z" />
    <glyph glyph-name="utilde" unicode="&#x169;" horiz-adv-x="530" 
d="M368 19l-2 30q-67 -57 -160 -57q-67 0 -104 35t-37 92v357q0 20 18 20h58q19 0 19 -20v-333q0 -66 74 -66q68 0 130 50v349q0 20 18 20h59q18 0 18 -20v-457q0 -19 -18 -19h-54q-18 0 -19 19zM197 628q-13 0 -16 -7.5t-3 -30.5v-7q0 -17 -20 -17h-32q-18 0 -16 22l2 32
q2 40 24.5 60t54.5 20q33 0 59 -16l43 -26q33 -19 40 -19q12 0 15.5 8t3.5 30v7q0 17 21 17h31q18 0 16 -22l-2 -32q-2 -40 -25 -60t-55 -20t-58 16l-43 26q-33 19 -40 19z" />
    <glyph glyph-name="Umacron" unicode="&#x16a;" horiz-adv-x="608" 
d="M174 660v-498q0 -87 129 -87q131 0 131 87v498q0 20 18 20h61q18 0 18 -20v-514q0 -68 -54 -111t-174 -43t-173.5 43t-53.5 111v514q0 20 19 20h61q18 0 18 -20zM183 836h243q19 0 19 -18v-36q0 -19 -19 -19h-243q-19 0 -19 19v36q0 18 19 18z" />
    <glyph glyph-name="umacron" unicode="&#x16b;" horiz-adv-x="530" 
d="M368 19l-2 30q-67 -57 -160 -57q-67 0 -104 35t-37 92v357q0 20 18 20h58q19 0 19 -20v-333q0 -66 74 -66q68 0 130 50v349q0 20 18 20h59q18 0 18 -20v-457q0 -19 -18 -19h-54q-18 0 -19 19zM144 659h242q19 0 19 -18v-36q0 -18 -19 -18h-242q-20 0 -20 18v36
q0 18 20 18z" />
    <glyph glyph-name="Ubreve" unicode="&#x16c;" horiz-adv-x="608" 
d="M174 660v-498q0 -87 129 -87q131 0 131 87v498q0 20 18 20h61q18 0 18 -20v-514q0 -68 -54 -111t-174 -43t-173.5 43t-53.5 111v514q0 20 19 20h61q18 0 18 -20zM246 864v-18q0 -28 12.5 -42.5t45.5 -14.5t45.5 14.5t12.5 42.5v18q0 16 17 16h35q17 0 17 -16v-15
q0 -118 -129 -118q-126 0 -126 118v15q0 16 17 16h36q17 0 17 -16z" />
    <glyph glyph-name="ubreve" unicode="&#x16d;" horiz-adv-x="530" 
d="M368 19l-2 30q-67 -57 -160 -57q-67 0 -104 35t-37 92v357q0 20 18 20h58q19 0 19 -20v-333q0 -66 74 -66q68 0 130 50v349q0 20 18 20h59q18 0 18 -20v-457q0 -19 -18 -19h-54q-18 0 -19 19zM201 684v-17q0 -58 58 -58q33 0 45.5 15t12.5 43v17q0 16 17 16h35
q17 0 17 -16v-15q0 -117 -129 -117q-125 0 -125 117v15q0 16 17 16h35q17 0 17 -16z" />
    <glyph glyph-name="Uring" unicode="&#x16e;" horiz-adv-x="608" 
d="M404 815v-23q0 -33 -25.5 -54.5t-74.5 -21.5t-74.5 21.5t-25.5 54.5v23q0 33 25.5 54.5t74.5 21.5t74.5 -21.5t25.5 -54.5zM347 800v7q0 34 -43 34t-43 -34v-7q0 -34 43 -34t43 34zM174 660v-498q0 -87 129 -87q131 0 131 87v498q0 20 18 20h61q18 0 18 -20v-514
q0 -68 -54 -111t-174 -43t-173.5 43t-53.5 111v514q0 20 19 20h61q18 0 18 -20z" />
    <glyph glyph-name="uring" unicode="&#x16f;" horiz-adv-x="530" 
d="M359 653v-33q0 -32 -24.5 -51t-71.5 -19t-71.5 19t-24.5 51v33q0 32 24.5 51.5t71.5 19.5t71.5 -19.5t24.5 -51.5zM307 630v13q0 33 -44 33t-44 -33v-13q0 -33 44 -33t44 33zM368 19l-2 30q-67 -57 -160 -57q-67 0 -104 35t-37 92v357q0 20 18 20h58q19 0 19 -20v-333
q0 -66 74 -66q68 0 130 50v349q0 20 18 20h59q18 0 18 -20v-457q0 -19 -18 -19h-54q-18 0 -19 19z" />
    <glyph glyph-name="Uhungarumlaut" unicode="&#x170;" horiz-adv-x="608" 
d="M481 859l-74 -107q-11 -17 -27 -17h-44q-20 0 -9 18l64 106q11 19 29 19h52q21 0 9 -19zM347 859l-59 -106q-10 -18 -25 -18h-44q-21 0 -12 18l49 106q8 19 27 19h51q10 0 14 -6t-1 -13zM174 660v-498q0 -87 129 -87q131 0 131 87v498q0 20 18 20h61q18 0 18 -20v-514
q0 -68 -54 -111t-174 -43t-173.5 43t-53.5 111v514q0 20 19 20h61q18 0 18 -20z" />
    <glyph glyph-name="uhungarumlaut" unicode="&#x171;" horiz-adv-x="530" 
d="M368 19l-2 30q-67 -57 -160 -57q-67 0 -104 35t-37 92v357q0 20 18 20h58q19 0 19 -20v-333q0 -66 74 -66q68 0 130 50v349q0 20 18 20h59q18 0 18 -20v-457q0 -19 -18 -19h-54q-18 0 -19 19zM439 689l-74 -107q-11 -17 -28 -17h-43q-21 0 -10 18l64 106q11 19 30 19h51
q10 0 13 -6t-3 -13zM305 689l-60 -106q-10 -18 -25 -18h-43q-10 0 -13.5 5.5t0.5 12.5l50 106q10 19 26 19h52q10 0 14 -6t-1 -13z" />
    <glyph glyph-name="Uogonek" unicode="&#x172;" horiz-adv-x="608" 
d="M174 660v-498q0 -87 129 -87q131 0 131 87v498q0 20 18 20h61q18 0 18 -20v-514q0 -60 -36 -96q-6 -6 -24.5 -22t-26 -24.5t-16 -25.5t-8.5 -36q0 -38 48 -38h29q20 0 20 -18v-28q0 -19 -25 -19h-52q-37 0 -64.5 21.5t-27.5 63.5q0 40 22 72q-27 -4 -67 -4
q-120 0 -173.5 43t-53.5 111v514q0 20 19 20h61q18 0 18 -20z" />
    <glyph glyph-name="uogonek" unicode="&#x173;" horiz-adv-x="530" 
d="M439 -161h-37q-37 0 -65.5 23t-28.5 66q0 60 59 99l-1 22q-67 -57 -160 -57q-67 0 -104 35t-37 92v357q0 20 18 20h58q19 0 19 -20v-333q0 -66 74 -66q68 0 130 50v349q0 20 18 20h59q18 0 18 -20v-457q0 -19 -18 -19h-6q-25 -1 -39 -19.5t-14 -38.5q0 -38 48 -38h14
q19 0 19 -18v-28q0 -19 -24 -19z" />
    <glyph glyph-name="Wcircumflex" unicode="&#x174;" horiz-adv-x="817" 
d="M464 661l104 -416q4 -18 8 -38t6 -35l2 -14q0 1 2 11.5t4 23t5 27.5t6 25l106 416q5 19 22 19h54q18 0 14 -19l-162 -642q-4 -19 -24 -19h-60q-17 0 -22 19l-107 424q-4 14 -13 78q-7 -51 -14 -79l-108 -423q-4 -19 -23 -19h-60q-17 0 -22 19l-163 642q-4 19 15 19h62
q18 0 23 -19l104 -416l16 -77q0 15 17 77l106 416q5 19 22 19h57q18 0 23 -19zM410 820l-41 -67q-10 -18 -27 -18h-45q-10 0 -12.5 5.5t2.5 12.5l75 106q14 19 30 19h35q16 0 30 -19l75 -106q6 -7 3 -12.5t-13 -5.5h-45q-15 0 -26 18z" />
    <glyph glyph-name="wcircumflex" unicode="&#x175;" horiz-adv-x="681" 
d="M342 650l-42 -67q-11 -18 -26 -18h-45q-10 0 -12.5 5.5t2.5 12.5l75 106q14 19 30 19h35q16 0 30 -19l75 -106q5 -7 2.5 -12.5t-12.5 -5.5h-45q-15 0 -26 18zM666 476l-129 -458q-3 -10 -7 -14t-13 -4h-69q-16 0 -20 18l-75 295q-10 32 -10 50l-12 -50l-85 -295
q-4 -18 -19 -18h-68q-16 0 -20 18l-124 458q-6 20 18 20h56q17 0 22 -20l83 -311q2 -7 3.5 -18t3 -18.5t1.5 -8.5l11 45l86 311q5 20 22 20h58q16 0 21 -20l78 -311q3 -11 5 -21t3 -15.5t1 -6.5q0 8 10 43l83 311q5 20 21 20h48q23 0 17 -20z" />
    <glyph glyph-name="Ycircumflex" unicode="&#x176;" horiz-adv-x="529" 
d="M124 661l125 -264q11 -27 16 -45q0 2 5.5 19t10.5 26l133 264q10 19 22 19h61q23 0 13 -19l-196 -391v-251q0 -19 -18 -19h-61q-19 0 -19 19v240l-198 402q-10 19 14 19h69q13 0 23 -19zM264 820l-41 -67q-10 -18 -27 -18h-45q-10 0 -12.5 5.5t2.5 12.5l75 106
q14 19 30 19h35q16 0 30 -19l75 -106q6 -7 3 -12.5t-13 -5.5h-45q-15 0 -26 18z" />
    <glyph glyph-name="ycircumflex" unicode="&#x177;" horiz-adv-x="450" 
d="M113 476l97 -289q4 -12 7.5 -28t5.5 -29l2 -12q7 32 18 67l99 291q6 20 22 20h54q23 0 17 -20l-226 -661q-6 -19 -21 -19h-43q-24 0 -18 19l56 177l-168 484q-6 20 17 20h59q15 0 22 -20zM225 650l-42 -67q-11 -18 -26 -18h-45q-10 0 -12.5 5.5t2.5 12.5l75 106
q14 19 30 19h35q16 0 30 -19l75 -106q5 -7 2.5 -12.5t-12.5 -5.5h-45q-15 0 -26 18z" />
    <glyph glyph-name="Ydieresis" unicode="&#x178;" horiz-adv-x="529" 
d="M124 661l125 -264q11 -27 16 -45q0 2 5.5 19t10.5 26l133 264q10 19 22 19h61q23 0 13 -19l-196 -391v-251q0 -19 -18 -19h-61q-19 0 -19 19v240l-198 402q-10 19 14 19h69q13 0 23 -19zM239 853v-95q0 -19 -18 -19h-35q-18 0 -18 19v95q0 20 18 20h35q18 0 18 -20z
M360 853v-95q0 -19 -18 -19h-35q-18 0 -18 19v95q0 20 18 20h35q18 0 18 -20z" />
    <glyph glyph-name="Zacute" unicode="&#x179;" horiz-adv-x="500" 
d="M79 680h352q20 0 20 -19v-43q0 -9 -4 -17l-287 -518h288q19 0 19 -18v-46q0 -19 -19 -19h-386q-19 0 -19 19v46q0 7 5 17l284 515h-253q-19 0 -19 19v45q0 19 19 19zM378 859l-77 -112q-7 -12 -24 -12h-46q-20 0 -10 18l59 107q10 18 26 18h62q22 0 10 -19z" />
    <glyph glyph-name="zacute" unicode="&#x17a;" horiz-adv-x="451" 
d="M338 689l-76 -112q-7 -12 -24 -12h-46q-20 0 -10 18l59 107q10 18 26 18h62q23 0 9 -19zM74 496h302q19 0 19 -19v-40q0 -10 -4 -15l-234 -344h235q19 0 19 -18v-41q0 -19 -19 -19h-332q-19 0 -19 19v41q0 8 4 14l232 343h-203q-19 0 -19 19v41q0 19 19 19z" />
    <glyph glyph-name="Zdotaccent" unicode="&#x17b;" horiz-adv-x="500" 
d="M298 839v-80q0 -19 -18 -19h-60q-18 0 -18 19v80q0 19 18 19h60q18 0 18 -19zM79 680h352q20 0 20 -19v-43q0 -9 -4 -17l-287 -518h288q19 0 19 -18v-46q0 -19 -19 -19h-386q-19 0 -19 19v46q0 7 5 17l284 515h-253q-19 0 -19 19v45q0 19 19 19z" />
    <glyph glyph-name="zdotaccent" unicode="&#x17c;" horiz-adv-x="451" 
d="M74 496h302q19 0 19 -19v-40q0 -10 -4 -15l-234 -344h235q19 0 19 -18v-41q0 -19 -19 -19h-332q-19 0 -19 19v41q0 8 4 14l232 343h-203q-19 0 -19 19v41q0 19 19 19zM274 676v-79q0 -19 -18 -19h-60q-19 0 -19 19v79q0 19 19 19h60q18 0 18 -19z" />
    <glyph glyph-name="Zcaron" unicode="&#x17d;" horiz-adv-x="500" 
d="M211 868l42 -66l41 66q13 19 26 19h45q10 0 13 -5.5t-3 -13.5l-75 -106q-13 -18 -30 -18h-35q-16 0 -30 19l-75 105q-6 8 -3 13.5t13 5.5h45q13 0 26 -19zM79 680h352q20 0 20 -19v-43q0 -9 -4 -17l-287 -518h288q19 0 19 -18v-46q0 -19 -19 -19h-386q-19 0 -19 19v46
q0 7 5 17l284 515h-253q-19 0 -19 19v45q0 19 19 19z" />
    <glyph glyph-name="zcaron" unicode="&#x17e;" horiz-adv-x="451" 
d="M187 689l42 -66l41 66q13 19 26 19h45q10 0 13 -5.5t-3 -13.5l-75 -106q-13 -18 -30 -18h-35q-16 0 -30 19l-75 105q-6 8 -3 13.5t13 5.5h45q13 0 26 -19zM74 496h302q19 0 19 -19v-40q0 -10 -4 -15l-234 -344h235q19 0 19 -18v-41q0 -19 -19 -19h-332q-19 0 -19 19v41
q0 8 4 14l232 343h-203q-19 0 -19 19v41q0 19 19 19z" />
    <glyph glyph-name="longs" unicode="&#x17f;" horiz-adv-x="333" 
d="M95 494h7v73q0 136 198 136h7q19 0 19 -19v-40q0 -19 -19 -19h-7q-103 0 -103 -68v-538q0 -19 -18 -19h-59q-18 0 -18 19v399h-59q-19 0 -19 19v34q0 18 19 19z" />
    <glyph glyph-name="florin" unicode="&#x192;" horiz-adv-x="562" 
d="M488 627h-15q-103 0 -111 -66l-17 -137h87q19 0 19 -19v-40q0 -19 -19 -19h-94l-48 -422q-15 -137 -213 -137h-7q-19 0 -19 19v41q0 20 19 20h15q102 0 110 67l47 412h-77q-19 0 -19 19v40q0 19 19 19h85l17 147q15 137 213 137h8q19 0 19 -19v-42q0 -20 -19 -20z" />
    <glyph glyph-name="Aringacute" unicode="&#x1fa;" horiz-adv-x="538" 
d="M238 680h62q18 0 24 -19l194 -642q6 -19 -15 -19h-63q-17 0 -22 19l-47 155h-211l-46 -155q-5 -19 -22 -19h-58q-20 0 -14 19l194 642q6 19 24 19zM367 815v-23q0 -33 -25.5 -54.5t-74.5 -21.5t-74.5 21.5t-25.5 54.5v23q0 29 19.5 49t57.5 25l31 57q10 18 26 18h62
q10 0 13 -5.5t-3 -13.5l-48 -66q42 -19 42 -64zM350 252l-56 182q-8 24 -17 77t-10 69q0 -1 -4.5 -29.5t-11 -62t-12.5 -52.5l-57 -184h168zM310 800v7q0 34 -43 34t-43 -34v-7q0 -34 43 -34t43 34z" />
    <glyph glyph-name="aringacute" unicode="&#x1fb;" horiz-adv-x="510" 
d="M67 354v15q0 135 189 135t189 -135v-349q0 -20 -18 -20h-52q-18 0 -19 20l-2 29q-72 -57 -158 -57q-67 0 -104 34.5t-37 86.5v48q0 52 36 86.5t103 34.5h158v77q0 33 -21.5 50.5t-75.5 17.5q-55 0 -77 -16t-22 -49v-8q0 -20 -19 -20h-52q-18 0 -18 20zM351 653v-33
q0 -32 -24.5 -51t-71.5 -19t-71.5 19t-24.5 51v33q0 59 70 69l44 80q10 18 26 18h62q23 0 9 -19l-59 -87q40 -18 40 -61zM220 71q67 0 132 51v86h-138q-36 0 -51 -15t-15 -46v-20q0 -56 72 -56zM299 630v13q0 33 -44 33t-44 -33v-13q0 -33 44 -33t44 33z" />
    <glyph glyph-name="AEacute" unicode="&#x1fc;" horiz-adv-x="837" 
d="M426 680h334q19 0 19 -18v-43q0 -19 -19 -19h-262v-207h245q19 0 19 -18v-40q0 -19 -19 -19h-245v-236h274q19 0 19 -18v-43q0 -19 -19 -19h-346q-21 0 -21 19v155h-200l-89 -155q-11 -19 -23 -19h-57q-10 0 -14.5 5t0.5 14l377 642q11 19 27 19zM371 459l-120 -207h154
v270q-9 -18 -34 -63zM597 859l-77 -112q-7 -12 -24 -12h-46q-20 0 -10 18l59 107q10 18 26 18h62q22 0 10 -19z" />
    <glyph glyph-name="aeacute" unicode="&#x1fd;" horiz-adv-x="787" 
d="M518 689l-76 -112q-7 -12 -24 -12h-46q-20 0 -10 18l59 107q10 18 26 18h62q23 0 9 -19zM734 367v-117q0 -18 -18 -18h-272v-102q0 -33 22.5 -49.5t77.5 -16.5q101 0 101 68v13q0 19 18 19h49q19 0 19 -19v-17q0 -136 -187 -136q-134 0 -173 66q-82 -66 -175 -66
q-70 0 -105.5 34t-35.5 87v42q0 53 36.5 87t102.5 34h157v94q0 64 -97 64q-54 0 -76.5 -17t-22.5 -50v-13q0 -19 -18 -19h-52q-19 0 -19 19v16q0 134 190 134q105 0 140 -53q43 53 148 53q190 0 190 -137zM219 67q60 0 132 56v88h-141q-62 0 -62 -60v-26q0 -28 18.5 -43
t52.5 -15zM444 363v-66h201v66q0 69 -101 69q-100 0 -100 -69z" />
    <glyph glyph-name="Oslashacute" unicode="&#x1fe;" horiz-adv-x="597" 
d="M71 145v388q0 68 53.5 111t173.5 43q87 0 142 -25l10 19q0 1 3.5 7t5 8.5t5 7t8 6t10.5 1.5h18q19 0 4 -30l-23 -44q45 -39 45 -104v-388q0 -68 -54 -111t-174 -43q-89 0 -146 26l-9 -18q-16 -30 -33 -30h-16q-20 0 -5 30l23 45q-41 38 -41 101zM428 161v356q0 7 -2 17
l-230 -434q32 -26 102 -26q130 0 130 87zM169 151l228 430q-34 23 -99 23q-129 0 -129 -87v-366zM412 859l-77 -112q-7 -12 -24 -12h-46q-20 0 -10 18l59 107q10 18 26 18h62q22 0 10 -19z" />
    <glyph glyph-name="oslashacute" unicode="&#x1ff;" horiz-adv-x="520" 
d="M60 129v238q0 64 49 100.5t151 36.5q62 0 106 -14l5 9q1 1 4 7t4 7.5l4 6t5.5 5.5t6 2.5t8.5 1.5h20q19 0 2 -30l-17 -30q52 -35 52 -102v-238q0 -64 -49 -100.5t-151 -36.5q-60 0 -108 15l-4 -8l-3.5 -7t-3.5 -6.5t-3 -5t-3.5 -4.5t-3.5 -3t-4.5 -2.5t-5.5 -1t-7 -0.5
h-17q-21 0 -3 30l16 28q-50 34 -50 102zM365 137v222q0 15 -4 24l-168 -303q23 -10 67 -10q105 0 105 67zM155 137q0 -16 3 -23l167 302q-23 10 -65 10q-105 0 -105 -67v-222zM380 689l-76 -112q-7 -12 -24 -12h-46q-20 0 -10 18l59 107q10 18 26 18h62q23 0 9 -19z" />
    <glyph glyph-name="Scommaaccent" unicode="&#x218;" horiz-adv-x="568" 
d="M250 -97v29q0 19 19 19h43q19 0 19 -19v-34q0 -57 -42 -125q-8 -13 -25 -10l-33 8q-19 5 -9 26q3 6 8.5 18t7 16.5t5 13.5t4.5 16t2 18t1 24zM410 490v31q0 85 -121 85t-121 -85v-20q0 -48 51 -67l182 -69q110 -42 110 -136v-83q0 -68 -53.5 -111t-170.5 -43t-171 43
t-54 111v58q0 20 19 20h59q18 0 18 -20v-45q0 -85 128 -85q129 0 129 85v47q0 23 -14.5 40.5t-28.5 24.5t-41 17l-169 65q-36 14 -62.5 47t-26.5 77v57q0 68 50.5 111t164.5 43t165.5 -43t51.5 -111v-44q0 -19 -18 -19h-59q-18 0 -18 19z" />
    <glyph glyph-name="scommaaccent" unicode="&#x219;" horiz-adv-x="468" 
d="M210 -98v29q0 19 19 19h43q19 0 19 -19v-34q0 -57 -42 -125q-8 -13 -25 -10l-33 8q-19 5 -9 26q3 6 8.5 18t7 16.5t5 13.5t4.5 16t2 18t1 24zM333 357v24q0 53 -95 53q-93 0 -93 -53v-17q0 -32 42 -46l150 -52q90 -31 90 -98v-56q0 -51 -47.5 -85.5t-142.5 -34.5
q-96 0 -142.5 34.5t-46.5 85.5v25q0 18 17 18h53q17 0 17 -18v-21q0 -53 102 -53t102 53v27q0 30 -53 48l-150 52q-31 11 -54.5 38.5t-23.5 62.5v37q0 52 43.5 87.5t137.5 35.5q93 0 137 -35.5t44 -87.5v-24q0 -18 -18 -18h-52q-17 0 -17 18z" />
    <glyph glyph-name="dotlessj" unicode="&#x237;" 
d="M166 476v-544q0 -136 -198 -136h-8q-19 0 -19 18v41q0 19 19 19h8q103 0 103 68v534q0 20 18 20h58q19 0 19 -20z" />
    <glyph glyph-name="circumflex" unicode="&#x2c6;" horiz-adv-x="350" 
d="M175 650l-42 -67q-11 -18 -26 -18h-45q-10 0 -12.5 5.5t2.5 12.5l75 106q14 19 30 19h35q16 0 30 -19l75 -106q5 -7 2.5 -12.5t-12.5 -5.5h-45q-15 0 -26 18z" />
    <glyph glyph-name="caron" unicode="&#x2c7;" horiz-adv-x="350" 
d="M133 689l42 -66l41 66q13 19 26 19h45q10 0 13 -5.5t-3 -13.5l-75 -106q-13 -18 -30 -18h-35q-16 0 -30 19l-75 105q-6 8 -3 13.5t13 5.5h45q13 0 26 -19z" />
    <glyph glyph-name="breve" unicode="&#x2d8;" horiz-adv-x="407" 
d="M145 684v-17q0 -58 58 -58q33 0 45.5 15t12.5 43v17q0 16 17 16h35q17 0 17 -16v-15q0 -117 -129 -117q-125 0 -125 117v15q0 16 17 16h35q17 0 17 -16z" />
    <glyph glyph-name="dotaccent" unicode="&#x2d9;" horiz-adv-x="244" 
d="M170 676v-79q0 -19 -18 -19h-60q-19 0 -19 19v79q0 19 19 19h60q18 0 18 -19z" />
    <glyph glyph-name="ring" unicode="&#x2da;" horiz-adv-x="366" 
d="M279 653v-33q0 -32 -24.5 -51t-71.5 -19t-71.5 19t-24.5 51v33q0 32 24.5 51.5t71.5 19.5t71.5 -19.5t24.5 -51.5zM227 630v13q0 33 -44 33t-44 -33v-13q0 -33 44 -33t44 33z" />
    <glyph glyph-name="ogonek" unicode="&#x2db;" horiz-adv-x="229" 
d="M173 -161h-47q-45 0 -75 23t-30 64q0 58 57 101q19 15 39 9l25 -7q8 -3 10.5 -9t-6.5 -12q-52 -32 -52 -65q0 -39 59 -39h20q19 0 19 -18v-28q0 -19 -19 -19z" />
    <glyph glyph-name="tilde" unicode="&#x2dc;" horiz-adv-x="416" 
d="M139 628q-13 0 -16 -7.5t-3 -30.5v-7q0 -17 -20 -17h-32q-18 0 -16 22l2 32q2 40 24.5 60t54.5 20q33 0 59 -16l43 -26q33 -19 40 -19q12 0 15.5 8t3.5 30v7q0 17 21 17h31q18 0 16 -22l-2 -32q-2 -40 -25 -60t-55 -20t-58 16l-43 26q-33 19 -40 19z" />
    <glyph glyph-name="hungarumlaut" unicode="&#x2dd;" horiz-adv-x="382" 
d="M328 689l-74 -107q-11 -17 -28 -17h-43q-21 0 -10 18l64 106q11 19 30 19h51q10 0 13 -6t-3 -13zM194 689l-60 -106q-10 -18 -25 -18h-43q-10 0 -13.5 5.5t0.5 12.5l50 106q9 19 26 19h52q10 0 14 -6t-1 -13z" />
    <glyph glyph-name="Delta" unicode="&#x394;" horiz-adv-x="388" 
d="M109 426h170q23 0 23 -23v-170q0 -24 -23 -24h-170q-24 0 -24 24v170q0 23 24 23z" />
    <glyph glyph-name="Omega" unicode="&#x3a9;" horiz-adv-x="388" 
d="M66 317q0 53 37.5 90.5t89.5 37.5q53 0 90.5 -37.5t37.5 -90.5q0 -52 -37.5 -89.5t-90.5 -37.5t-90 37t-37 90zM84 317q0 -46 31.5 -77.5t77.5 -31.5q45 0 77 31.5t32 77.5q0 45 -32 77t-77 32q-46 0 -77.5 -32t-31.5 -77z" />
    <glyph glyph-name="mu" unicode="&#x3bc;" horiz-adv-x="530" 
d="M368 19l-2 30q-67 -57 -160 -57q-25 0 -51 7l5 -183q0 -20 -18 -20h-59q-18 0 -18 20v660q0 20 18 20h58q19 0 19 -20v-333q0 -66 74 -66q68 0 130 50v349q0 20 18 20h59q18 0 18 -20v-457q0 -19 -18 -19h-54q-18 0 -19 19z" />
    <glyph glyph-name="pi" unicode="&#x3c0;" horiz-adv-x="388" 
d="M64 440h257q8 0 11.5 -5t3 -12.5t-5.5 -15.5l-120 -194q-6 -10 -16.5 -10t-16.5 10l-120 194q-5 7 -6 14.5t2 13t11 5.5z" />
    <glyph glyph-name="Wgrave" unicode="&#x1e80;" horiz-adv-x="817" 
d="M464 661l104 -416q4 -18 8 -38t6 -35l2 -14q0 1 2 11.5t4 23t5 27.5t6 25l106 416q5 19 22 19h54q18 0 14 -19l-162 -642q-4 -19 -24 -19h-60q-17 0 -22 19l-107 424q-4 14 -13 78q-7 -51 -14 -79l-108 -423q-4 -19 -23 -19h-60q-17 0 -22 19l-163 642q-4 19 15 19h62
q18 0 23 -19l104 -416l16 -77q0 15 17 77l106 416q5 19 22 19h57q18 0 23 -19zM359 747l-76 111q-6 8 -3.5 14t12.5 6h62q16 0 26 -19l59 -106q10 -19 -9 -19h-47q-15 0 -24 13z" />
    <glyph glyph-name="wgrave" unicode="&#x1e81;" horiz-adv-x="681" 
d="M666 476l-129 -458q-3 -10 -7 -14t-13 -4h-69q-16 0 -20 18l-75 295q-10 32 -10 50l-12 -50l-85 -295q-4 -18 -19 -18h-68q-16 0 -20 18l-124 458q-6 20 18 20h56q17 0 22 -20l83 -311q2 -7 3.5 -18t3 -18.5t1.5 -8.5l11 45l86 311q5 20 22 20h58q16 0 21 -20l78 -311
q3 -11 5 -21t3 -15.5t1 -6.5q0 8 10 43l83 311q5 20 21 20h48q23 0 17 -20zM300 577l-76 112q-14 19 9 19h62q16 0 26 -18l59 -107q10 -18 -9 -18h-47q-14 0 -24 12z" />
    <glyph glyph-name="Wacute" unicode="&#x1e82;" horiz-adv-x="817" 
d="M464 661l104 -416q4 -18 8 -38t6 -35l2 -14q0 1 2 11.5t4 23t5 27.5t6 25l106 416q5 19 22 19h54q18 0 14 -19l-162 -642q-4 -19 -24 -19h-60q-17 0 -22 19l-107 424q-4 14 -13 78q-7 -51 -14 -79l-108 -423q-4 -19 -23 -19h-60q-17 0 -22 19l-163 642q-4 19 15 19h62
q18 0 23 -19l104 -416l16 -77q0 15 17 77l106 416q5 19 22 19h57q18 0 23 -19zM535 859l-77 -112q-7 -12 -24 -12h-46q-20 0 -10 18l59 107q10 18 26 18h62q22 0 10 -19z" />
    <glyph glyph-name="wacute" unicode="&#x1e83;" horiz-adv-x="681" 
d="M471 689l-76 -112q-7 -12 -24 -12h-46q-20 0 -10 18l59 107q10 18 26 18h62q23 0 9 -19zM666 476l-129 -458q-3 -10 -7 -14t-13 -4h-69q-16 0 -20 18l-75 295q-10 32 -10 50l-12 -50l-85 -295q-4 -18 -19 -18h-68q-16 0 -20 18l-124 458q-6 20 18 20h56q17 0 22 -20
l83 -311q2 -7 3.5 -18t3 -18.5t1.5 -8.5l11 45l86 311q5 20 22 20h58q16 0 21 -20l78 -311q3 -11 5 -21t3 -15.5t1 -6.5q0 8 10 43l83 311q5 20 21 20h48q23 0 17 -20z" />
    <glyph glyph-name="Wdieresis" unicode="&#x1e84;" horiz-adv-x="817" 
d="M464 661l104 -416q4 -18 8 -38t6 -35l2 -14q0 1 2 11.5t4 23t5 27.5t6 25l106 416q5 19 22 19h54q18 0 14 -19l-162 -642q-4 -19 -24 -19h-60q-17 0 -22 19l-107 424q-4 14 -13 78q-7 -51 -14 -79l-108 -423q-4 -19 -23 -19h-60q-17 0 -22 19l-163 642q-4 19 15 19h62
q18 0 23 -19l104 -416l16 -77q0 15 17 77l106 416q5 19 22 19h57q18 0 23 -19zM383 853v-95q0 -19 -18 -19h-35q-18 0 -18 19v95q0 20 18 20h35q18 0 18 -20zM504 853v-95q0 -19 -18 -19h-35q-18 0 -18 19v95q0 20 18 20h35q18 0 18 -20z" />
    <glyph glyph-name="wdieresis" unicode="&#x1e85;" horiz-adv-x="681" 
d="M316 685v-95q0 -19 -18 -19h-35q-19 0 -19 19v95q0 19 19 19h35q18 0 18 -19zM437 685v-95q0 -19 -18 -19h-35q-19 0 -19 19v95q0 19 19 19h35q18 0 18 -19zM666 476l-129 -458q-3 -10 -7 -14t-13 -4h-69q-16 0 -20 18l-75 295q-10 32 -10 50l-12 -50l-85 -295
q-4 -18 -19 -18h-68q-16 0 -20 18l-124 458q-6 20 18 20h56q17 0 22 -20l83 -311q2 -7 3.5 -18t3 -18.5t1.5 -8.5l11 45l86 311q5 20 22 20h58q16 0 21 -20l78 -311q3 -11 5 -21t3 -15.5t1 -6.5q0 8 10 43l83 311q5 20 21 20h48q23 0 17 -20z" />
    <glyph glyph-name="Ygrave" unicode="&#x1ef2;" horiz-adv-x="529" 
d="M124 661l125 -264l16 -44q7 27 16 44l133 264q10 19 22 19h61q23 0 13 -19l-196 -391v-251q0 -19 -18 -19h-61q-19 0 -19 19v240l-198 402q-10 19 14 19h69q13 0 23 -19zM222 747l-76 111q-6 8 -3.5 14t12.5 6h62q16 0 26 -19l59 -106q10 -19 -9 -19h-47q-15 0 -24 13z
" />
    <glyph glyph-name="ygrave" unicode="&#x1ef3;" horiz-adv-x="450" 
d="M113 476l97 -289q4 -12 7.5 -28t5.5 -29l2 -12q7 32 18 67l99 291q6 20 22 20h54q23 0 17 -20l-226 -661q-6 -19 -21 -19h-43q-24 0 -18 19l56 177l-168 484q-6 20 17 20h59q15 0 22 -20zM182 577l-76 112q-14 19 9 19h62q16 0 26 -18l59 -107q10 -18 -9 -18h-47
q-14 0 -24 12z" />
    <glyph glyph-name="endash" unicode="&#x2013;" horiz-adv-x="541" 
d="M90 328h361q19 0 19 -18v-42q0 -18 -19 -18h-361q-19 0 -19 18v42q0 18 19 18z" />
    <glyph glyph-name="emdash" unicode="&#x2014;" horiz-adv-x="850" 
d="M90 328h670q19 0 19 -18v-42q0 -18 -19 -18h-670q-19 0 -19 18v42q0 18 19 18z" />
    <glyph glyph-name="quoteleft" unicode="&#x2018;" horiz-adv-x="232" 
d="M155 601v-64q0 -19 -18 -19h-61q-18 0 -18 19v69q0 100 119 133q18 4 24 -12l14 -41q7 -18 -12 -24q-48 -19 -48 -61z" />
    <glyph glyph-name="quoteright" unicode="&#x2019;" horiz-adv-x="232" 
d="M77 656v64q0 19 18 19h61q18 0 18 -19v-69q0 -100 -119 -133q-18 -4 -24 12l-14 41q-7 18 12 24q48 19 48 61z" />
    <glyph glyph-name="quotesinglbase" unicode="&#x201a;" horiz-adv-x="232" 
d="M77 35v64q0 19 18 19h61q18 0 18 -19v-69q0 -100 -119 -133q-18 -4 -24 12l-14 41q-7 18 12 24q48 19 48 61z" />
    <glyph glyph-name="quotedblleft" unicode="&#x201c;" horiz-adv-x="415" 
d="M338 601v-64q0 -19 -18 -19h-61q-18 0 -18 19v69q0 100 119 133q18 4 24 -12l14 -41q7 -18 -12 -24q-48 -19 -48 -61zM155 601v-64q0 -19 -18 -19h-61q-18 0 -18 19v69q0 100 119 133q18 4 24 -12l14 -41q7 -18 -12 -24q-48 -19 -48 -61z" />
    <glyph glyph-name="quotedblright" unicode="&#x201d;" horiz-adv-x="415" 
d="M260 656v64q0 19 18 19h61q18 0 18 -19v-69q0 -100 -119 -133q-18 -4 -24 12l-14 41q-7 18 12 24q48 19 48 61zM77 656v64q0 19 18 19h61q18 0 18 -19v-69q0 -100 -119 -133q-18 -4 -24 12l-14 41q-7 18 12 24q48 19 48 61z" />
    <glyph glyph-name="quotedblbase" unicode="&#x201e;" horiz-adv-x="415" 
d="M260 35v64q0 19 18 19h61q18 0 18 -19v-69q0 -100 -119 -133q-18 -4 -24 12l-14 41q-7 18 12 24q48 19 48 61zM77 35v64q0 19 18 19h61q18 0 18 -19v-69q0 -100 -119 -133q-18 -4 -24 12l-14 41q-7 18 12 24q48 19 48 61z" />
    <glyph glyph-name="dagger" unicode="&#x2020;" horiz-adv-x="621" 
d="M359 679v-659q0 -20 -18 -20h-59q-18 0 -18 20v659q0 20 18 20h59q18 0 18 -20zM101 507h120q19 0 19 -18v-43q0 -19 -19 -19h-120q-19 0 -19 19v43q0 18 19 18zM402 507h119q19 0 19 -18v-43q0 -19 -19 -19h-119q-20 0 -20 19v43q0 18 20 18z" />
    <glyph glyph-name="daggerdbl" unicode="&#x2021;" horiz-adv-x="621" 
d="M359 679v-659q0 -20 -18 -20h-59q-18 0 -18 20v659q0 20 18 20h59q18 0 18 -20zM101 507h120q19 0 19 -18v-43q0 -19 -19 -19h-120q-19 0 -19 19v43q0 18 19 18zM402 507h119q19 0 19 -18v-43q0 -19 -19 -19h-119q-20 0 -20 19v43q0 18 20 18zM101 271h120q19 0 19 -19
v-42q0 -20 -19 -20h-120q-19 0 -19 20v42q0 19 19 19zM402 271h119q19 0 19 -19v-42q0 -20 -19 -20h-119q-20 0 -20 20v42q0 19 20 19z" />
    <glyph glyph-name="bullet" unicode="&#x2022;" horiz-adv-x="260" 
d="M179 335v-137q0 -19 -18 -19h-60q-19 0 -19 19v137q0 19 19 19h60q18 0 18 -19z" />
    <glyph glyph-name="ellipsis" unicode="&#x2026;" horiz-adv-x="728" 
d="M165 99v-80q0 -19 -18 -19h-60q-19 0 -19 19v80q0 19 19 19h60q18 0 18 -19zM660 99v-80q0 -19 -18 -19h-60q-19 0 -19 19v80q0 19 19 19h60q18 0 18 -19zM413 99v-80q0 -19 -18 -19h-60q-19 0 -19 19v80q0 19 19 19h60q18 0 18 -19z" />
    <glyph glyph-name="perthousand" unicode="&#x2030;" horiz-adv-x="1157" 
d="M76 481v104q0 102 144 102t144 -102v-104q0 -103 -144 -103t-144 103zM285 484v98q0 41 -65 41t-65 -41v-98q0 -41 65 -41t65 41zM660 97v98q0 40 -65 40t-65 -40v-98q0 -42 65 -42t65 42zM451 93v104q0 103 144 103t144 -103v-104q0 -102 -144 -102t-144 102zM1002 97
v98q0 40 -65 40t-65 -40v-98q0 -42 65 -42t65 42zM793 93v104q0 103 145 103q143 0 143 -103v-104q0 -102 -143 -102q-145 0 -145 102zM607 660l-310 -640q-10 -20 -27 -20h-50q-8 0 -10.5 7t1.5 13l311 640q9 20 27 20h49q9 0 11.5 -6t-2.5 -14z" />
    <glyph glyph-name="guilsinglleft" unicode="&#x2039;" horiz-adv-x="360" 
d="M271 337l-126 -92l126 -91q19 -13 19 -29v-60q0 -10 -6 -13t-13 2l-184 136q-17 13 -17 26v59q0 12 17 25l184 137q7 6 13 2.5t6 -13.5v-60q0 -14 -19 -29z" />
    <glyph glyph-name="guilsinglright" unicode="&#x203a;" horiz-adv-x="360" 
d="M215 245l-126 92q-19 15 -19 29v60q0 10 6 13.5t13 -2.5l184 -137q17 -13 17 -25v-59q0 -13 -17 -26l-184 -136q-7 -5 -13 -2t-6 13v60q0 16 19 29z" />
    <glyph glyph-name="fraction" unicode="&#x2044;" horiz-adv-x="444" 
d="M419 660l-310 -640q-10 -20 -27 -20h-50q-8 0 -10.5 7t1.5 13l311 640q9 20 27 20h49q9 0 11.5 -6t-2.5 -14z" />
    <glyph glyph-name="Euro" unicode="&#x20ac;" horiz-adv-x="653" 
d="M95 306h40v67h-40q-19 0 -19 19v25q0 18 19 18h40v99q0 154 221 154t221 -154v-49q0 -20 -18 -20h-58q-19 0 -19 20v33q0 87 -125 87q-124 0 -124 -87v-83h132q19 0 19 -18v-25q0 -19 -19 -19h-132v-67h132q19 0 19 -18v-25q0 -19 -19 -19h-132v-82q0 -87 124 -87
q125 0 125 87v47q0 19 19 19h58q18 0 18 -19v-63q0 -154 -221 -154t-221 154v98h-40q-19 0 -19 19v25q0 18 19 18z" />
    <glyph glyph-name="afii61289" unicode="&#x2113;" horiz-adv-x="544" 
d="M124 135v71q-58 -27 -71 -31q-18 -5 -24 9l-19 44q-7 18 10 25l8 3q7 3 18.5 8t25 11t27.5 12.5t25 12.5v231q0 68 43 110.5t136 42.5q89 0 130.5 -42.5t41.5 -110.5q0 -46 -21.5 -87.5t-61.5 -76.5t-80 -60.5t-93 -53.5v-96q0 -79 99 -79h103q20 0 20 -18v-41
q0 -19 -19 -19h-105q-193 0 -193 135zM219 519v-171q166 92 166 177q0 81 -83 81t-83 -87z" />
    <glyph glyph-name="trademark" unicode="&#x2122;" horiz-adv-x="905" 
d="M824 664v-376q0 -16 -16 -16h-47q-16 0 -16 16v241q0 -1 -1.5 -5.5t-3.5 -11t-4 -10.5l-69 -153q-7 -15 -21 -15h-35q-14 0 -21 15l-72 155q-4 8 -9 28v-244q0 -16 -15 -16h-45q-16 0 -16 16v376q0 16 16 16h45q10 0 13 -7l108 -220q10 -21 13 -31q0 3 12 29l106 222
q3 7 15 7h47q16 0 16 -16zM98 680h272q16 0 16 -15v-37q0 -15 -16 -15h-95v-325q0 -16 -15 -16h-51q-16 0 -16 16v325h-95q-16 0 -16 15v37q0 15 16 15z" />
    <glyph glyph-name="uni2126" unicode="&#x2126;" horiz-adv-x="388" 
d="M66 317q0 53 37.5 90.5t89.5 37.5q53 0 90.5 -37.5t37.5 -90.5q0 -52 -37.5 -89.5t-90.5 -37.5t-90 37t-37 90zM84 317q0 -46 31.5 -77.5t77.5 -31.5q45 0 77 31.5t32 77.5q0 45 -32 77t-77 32q-46 0 -77.5 -32t-31.5 -77z" />
    <glyph glyph-name="estimated" unicode="&#x212e;" horiz-adv-x="833" 
d="M755 340q0 -16 -17 -16h-559v-199q91 -104 230 -104q140 0 242 111q5 5 10 5q13 0 13 -14q0 -7 -7 -16q-46 -53 -114 -84t-144 -31q-146 0 -247 99.5t-101 248.5q0 144 102 246t246 102q143 0 244.5 -102t101.5 -246zM409 659q-138 0 -230 -105v-204h460v202
q-94 107 -230 107z" />
    <glyph glyph-name="partialdiff" unicode="&#x2202;" horiz-adv-x="388" 
d="M86 191v257q0 12 11 14t22 -5l195 -121q9 -6 9 -16t-9 -16l-195 -120q-11 -7 -22 -6t-11 13z" />
    <glyph glyph-name="uni2206" unicode="&#x2206;" horiz-adv-x="388" 
d="M109 426h170q23 0 23 -23v-170q0 -24 -23 -24h-170q-24 0 -24 24v170q0 23 24 23z" />
    <glyph glyph-name="product" unicode="&#x220f;" horiz-adv-x="388" 
d="M323 200h-257q-8 0 -11.5 5t-2.5 12.5t6 15.5l120 194q6 10 16 10t16 -10l120 -194q5 -7 6 -14.5t-2 -13t-11 -5.5z" />
    <glyph glyph-name="summation" unicode="&#x2211;" horiz-adv-x="388" 
d="M301 448v-257q0 -12 -11.5 -13t-21.5 6l-194 120q-10 6 -10 16t10 16l194 121q7 5 14.5 6t13 -3t5.5 -12z" />
    <glyph glyph-name="minus" unicode="&#x2212;" horiz-adv-x="585" 
d="M90 371h405q19 0 19 -19v-42q0 -20 -19 -20h-405q-19 0 -19 20v42q0 19 19 19z" />
    <glyph glyph-name="radical" unicode="&#x221a;" horiz-adv-x="388" 
d="M109 435h170q17 0 24.5 -7.5t7.5 -24.5v-170q0 -18 -7.5 -25.5t-24.5 -7.5h-170q-18 0 -25.5 7.5t-7.5 25.5v170q0 17 7.5 24.5t25.5 7.5zM279 416h-170q-15 0 -15 -13v-170q0 -15 15 -15h170q14 0 14 15v170q0 13 -14 13z" />
    <glyph glyph-name="infinity" unicode="&#x221e;" horiz-adv-x="388" 
d="M50 340l121 121q12 12 23 12q12 0 23 -12l120 -121q12 -12 12 -22q0 -11 -12 -23l-120 -121q-11 -12 -23 -12q-11 0 -23 12l-121 121q-12 12 -12 23q0 10 12 22zM184 448l-120 -121q-5 -5 -5 -10t4 -9l121 -121q5 -5 10 -5q4 0 9 5l121 121q5 5 5 9q0 5 -5 10l-121 121
q-4 4 -9 4q-6 0 -10 -4z" />
    <glyph glyph-name="integral" unicode="&#x222b;" horiz-adv-x="388" 
d="M26 317q0 69 49 118.5t118 49.5t118.5 -49.5t49.5 -118.5t-49.5 -118t-118.5 -49q-70 0 -118.5 48.5t-48.5 118.5z" />
    <glyph glyph-name="approxequal" unicode="&#x2248;" horiz-adv-x="494" 
d="M161 384q-13 0 -16 -6.5t-6 -28.5l-1 -9q-1 -17 -21 -17h-30q-18 0 -16 22l3 36q3 44 26 65.5t52 21.5q24 0 48 -11l90 -42q30 -14 43 -14q4 0 7 0.5t5 2.5t3 3.5t2 5.5t1.5 6.5t1 9t1.5 10.5l1 7q2 17 20 17h31q17 0 16 -22l-3 -36q-4 -46 -25.5 -67t-49.5 -21
q-27 0 -56 13l-92 43q-25 11 -35 11zM161 212q-13 0 -16 -6.5t-6 -28.5l-1 -9q-1 -17 -21 -17h-30q-18 0 -16 22l3 36q3 44 26 65.5t52 21.5q24 0 48 -11l90 -42q30 -14 43 -14q4 0 7 0.5t5 2.5t3 3.5t2 5.5t1.5 6.5t1 9t1.5 10.5l1 7q2 17 20 17h31q17 0 16 -22l-3 -36
q-4 -46 -25.5 -67t-49.5 -21q-27 0 -56 13l-92 43q-25 11 -35 11z" />
    <glyph glyph-name="notequal" unicode="&#x2260;" horiz-adv-x="585" 
d="M90 462h207l24 63q8 20 24 20h55q21 0 13 -20l-24 -63h106q19 0 19 -18v-43q0 -19 -19 -19h-136l-42 -110h178q19 0 19 -18v-43q0 -19 -19 -19h-208l-24 -63q-7 -19 -25 -19h-55q-18 0 -12 19l24 63h-105q-19 0 -19 19v43q0 18 19 18h135l42 110h-177q-19 0 -19 19v43
q0 18 19 18z" />
    <glyph glyph-name="lessequal" unicode="&#x2264;" horiz-adv-x="532" 
d="M442 509l-278 -95l278 -95q19 -6 19 -21v-57q0 -24 -19 -17l-354 137q-17 7 -17 20v65q0 14 17 21l354 137q19 7 19 -17v-57q0 -15 -19 -21zM90 172h352q19 0 19 -18v-41q0 -19 -19 -19h-352q-19 0 -19 19v41q0 18 19 18z" />
    <glyph glyph-name="greaterequal" unicode="&#x2265;" horiz-adv-x="532" 
d="M368 414l-278 94q-19 6 -19 22v58q0 25 19 18l354 -136q17 -7 17 -22v-67q0 -14 -17 -21l-354 -137q-19 -7 -19 18v58q0 16 19 22zM90 173h352q19 0 19 -19v-43q0 -19 -19 -19h-352q-19 0 -19 19v43q0 19 19 19z" />
    <glyph glyph-name="lozenge" unicode="&#x25ca;" horiz-adv-x="388" 
d="M57 334l121 121q8 8 16 8q6 0 16 -8l121 -121q8 -10 8 -16q0 -8 -8 -16l-121 -121q-9 -9 -16 -9q-8 0 -16 9l-121 121q-9 8 -9 16q0 7 9 16z" />
    <glyph glyph-name="CR" horiz-adv-x="0" 
 />
    <glyph glyph-name="commaaccent" horiz-adv-x="278" 
d="M104 70v29q0 19 19 19h43q19 0 19 -19v-34q0 -57 -42 -125q-8 -13 -25 -10l-33 8q-19 5 -9 26q3 6 8.5 18t7 16.5t5 13.5t4.5 16t2 18t1 24z" />
    <glyph glyph-name="acute.case" horiz-adv-x="212" 
d="M203 859l-77 -112q-7 -12 -24 -12h-46q-20 0 -10 18l59 107q10 18 26 18h62q22 0 10 -19z" />
    <glyph glyph-name="macron.case" horiz-adv-x="212" 
d="M-15 836h243q19 0 19 -18v-36q0 -19 -19 -19h-243q-19 0 -19 19v36q0 18 19 18z" />
    <glyph glyph-name="breve.case" horiz-adv-x="212" 
d="M48 864v-18q0 -28 12.5 -42.5t45.5 -14.5t45.5 14.5t12.5 42.5v18q0 16 17 16h35q17 0 17 -16v-15q0 -118 -129 -118q-126 0 -126 118v15q0 16 17 16h36q17 0 17 -16z" />
    <glyph glyph-name="caron.case" horiz-adv-x="212" 
d="M65 859l41 -66l41 66q13 19 26 19h45q10 0 13 -5.5t-3 -13.5l-75 -106q-13 -18 -30 -18h-35q-16 0 -30 19l-75 105q-6 8 -3 13.5t13 5.5h45q14 0 27 -19z" />
    <glyph glyph-name="ring.case" horiz-adv-x="212" 
d="M206 815v-23q0 -33 -25.5 -54.5t-74.5 -21.5t-74.5 21.5t-25.5 54.5v23q0 33 25.5 54.5t74.5 21.5t74.5 -21.5t25.5 -54.5zM149 800v7q0 34 -43 34t-43 -34v-7q0 -34 43 -34t43 34z" />
    <glyph glyph-name="circumflex.case" horiz-adv-x="212" 
d="M106 820l-41 -67q-10 -18 -27 -18h-45q-10 0 -12.5 5.5t2.5 12.5l75 106q14 19 30 19h35q16 0 30 -19l75 -106q6 -7 3 -12.5t-13 -5.5h-45q-15 0 -26 18z" />
    <glyph glyph-name="tilde.case" horiz-adv-x="212" 
d="M38 805q-13 0 -16 -7.5t-3 -30.5v-7q0 -17 -20 -17h-32q-18 0 -16 22l2 32q2 40 24.5 60t54.5 20q33 0 59 -16l43 -26q33 -19 40 -19q12 0 15.5 8t3.5 30v7q0 17 21 17h31q18 0 16 -22l-2 -32q-2 -40 -24.5 -60t-55.5 -20q-32 0 -58 16l-43 26q-33 19 -40 19z" />
    <glyph glyph-name="dieresis.case" horiz-adv-x="212" 
d="M81 853v-95q0 -19 -18 -19h-35q-18 0 -18 19v95q0 20 18 20h35q18 0 18 -20zM202 853v-95q0 -19 -18 -19h-35q-18 0 -18 19v95q0 20 18 20h35q18 0 18 -20z" />
    <glyph glyph-name="dotaccent.case" horiz-adv-x="212" 
d="M154 839v-80q0 -19 -18 -19h-60q-18 0 -18 19v80q0 19 18 19h60q18 0 18 -19z" />
    <glyph glyph-name="grave.case" horiz-adv-x="212" 
d="M105 747l-76 111q-6 8 -3.5 14t12.5 6h62q16 0 26 -19l59 -106q10 -19 -9 -19h-47q-15 0 -24 13z" />
    <glyph glyph-name="hungarumlaut.case" horiz-adv-x="212" 
d="M242 859l-74 -107q-11 -17 -27 -17h-44q-20 0 -9 18l64 106q11 19 29 19h52q21 0 9 -19zM108 859l-59 -106q-10 -18 -25 -18h-44q-21 0 -12 18l49 106q8 19 27 19h51q10 0 14 -6t-1 -13z" />
    <glyph glyph-name="apple" horiz-adv-x="1482" 
d="M711 320q17 0 28.5 -13.5t11.5 -37.5q0 -68 -87 -68v-40l3 -32q-24 -8 -32 -8q-11 0 -11 8v75l-25 -3v-3q0 -79 -68 -79q-21 0 -31 10.5t-10 23.5q0 36 70 53v42q-17 -48 -46 -48q-28 0 -28 31v3q-19 -33 -53 -33q-29 0 -29 30v101l-29 -2v4q0 20 12 20h17l-3 30
q24 8 32 8q11 0 11 -8v-29h47v-3q0 -21 -12 -21h-35v-86q0 -16 13 -16q9 0 19 8t10 18v25l-3 33q24 8 32 8q11 0 11 -9v-66q0 -15 7 -15q8 0 17.5 17.5t8.5 30.5l-2 34q24 8 31 8q11 0 11 -9v-99l25 3v61l-3 36q24 8 32 8q11 0 11 -9v-40q17 48 47 48zM380 289v-49l3 -32
q-24 -8 -31 -8q-11 0 -11 8v66q0 16 -8 16q-6 0 -16 -17.5t-10 -30.5l2 -34q-24 -8 -31 -8q-11 0 -11 8v66q0 16 -8 16q-7 0 -16.5 -17.5t-9.5 -30.5l3 -34q-24 -8 -32 -8q-11 0 -11 8v69l-3 36q24 8 32 8q11 0 11 -9v-40q3 9 7.5 19t15 20t22.5 10q29 0 29 -32v-17
q14 49 45 49q28 0 28 -32zM1213 332l-29 -2v4q0 20 12 20h17l-3 30q24 8 32 8q11 0 11 -8v-29h47v-3q0 -21 -12 -21h-35v-90q0 -15 16 -15q11 0 38.5 5.5t46.5 5.5q17 0 39.5 -6t22.5 -18q0 -14 -9.5 -21t-17.5 -7q-2 0 -26.5 12t-44.5 12q-7 0 -32 -4t-44 -4t-23 12.5
t-5 65.5q0 32 -1 53zM69 529v8h1338v-8h-1338zM69 0v8h1338v-8h-1338zM1071 289v-49l2 -32q-24 -8 -31 -8q-11 0 -11 8v67q0 15 -8 15q-7 0 -16.5 -17.5t-9.5 -30.5l3 -34q-24 -8 -32 -8q-11 0 -11 8v69l-3 36q24 8 32 8q11 0 11 -9v-40q17 49 45 49q29 0 29 -32zM150 258
q-16 -6 -44 -6q2 -22 26 -22q17 0 32 9q8 -5 8 -16q0 -4 -2.5 -8.5t-14 -9.5t-30.5 -5q-28 0 -44 14.5t-16 38.5q0 27 18.5 47.5t50.5 20.5q19 0 30 -9.5t11 -21.5q0 -24 -25 -32zM849 258q-16 -6 -44 -6q2 -22 26 -22q17 0 32 9q8 -5 8 -16q0 -4 -2.5 -8.5t-14 -9.5
t-30.5 -5q-28 0 -44 14.5t-16 38.5q0 27 18.5 47.5t50.5 20.5q19 0 30 -9.5t11 -21.5q0 -24 -25 -32zM1172 258q-16 -6 -44 -6q2 -22 26 -22q17 0 32 9q8 -5 8 -16q0 -4 -2.5 -8.5t-14 -9.5t-30.5 -5q-28 0 -44 14.5t-16 38.5q0 27 18.5 47.5t50.5 20.5q19 0 30 -9.5
t11 -21.5q0 -24 -25 -32zM664 219q45 6 45 51q0 20 -13 20t-22.5 -18.5t-9.5 -29.5v-23zM914 250q11 0 18.5 -7t7.5 -17t-7.5 -16.5t-18.5 -6.5t-18 6.5t-7 16.5t7 17t18 7zM559 194q-41 -9 -41 -32q0 -14 14 -14q25 0 27 46zM105 264q37 0 37 21q0 13 -13 13q-20 0 -24 -34
zM1127 264q37 0 37 21q0 13 -13 13q-20 0 -24 -34zM804 264q37 0 37 21q0 13 -13 13q-20 0 -24 -34z" />
    </font>
</defs>
</svg>
